  0
SECTION
  2
HEADER
  9
$ACADVER
  1
AC1027
  9
$ACADMAINTVER
 70
   105
  9
$DWGCODEPAGE
  3
ANSI_932
  9
$REQUIREDVERSIONS
160
                 0
  9
$INSBASE
 10
0.0
 20
0.0
 30
0.0
  9
$EXTMIN
 10
0.0
 20
0.0
 30
0.0
  9
$EXTMAX
 10
800.0
 20
1148.0
 30
0.0
  9
$LIMMIN
 10
0.0
 20
0.0
  9
$LIMMAX
 10
210.0
 20
297.0
  9
$ORTHOMODE
 70
     0
  9
$REGENMODE
 70
     1
  9
$FILLMODE
 70
     1
  9
$QTEXTMODE
 70
     0
  9
$MIRRTEXT
 70
     1
  9
$LTSCALE
 40
1.0
  9
$ATTMODE
 70
     1
  9
$TEXTSIZE
 40
20.0
  9
$TRACEWID
 40
0.05
  9
$TEXTSTYLE
  7
Standard
  9
$CLAYER
  8
0
  9
$CELTYPE
  6
ByLayer
  9
$CECOLOR
 62
   256
  9
$CELTSCALE
 40
1.0
  9
$DISPSILH
 70
     0
  9
$DIMSCALE
 40
1.0
  9
$DIMASZ
 40
4.0
  9
$DIMEXO
 40
2.0
  9
$DIMDLI
 40
10.0
  9
$DIMRND
 40
0.0
  9
$DIMDLE
 40
0.0
  9
$DIMEXE
 40
2.0
  9
$DIMTP
 40
0.0
  9
$DIMTM
 40
0.0
  9
$DIMTXT
 40
3.5
  9
$DIMCEN
 40
0.09
  9
$DIMTSZ
 40
0.0
  9
$DIMTOL
 70
     0
  9
$DIMLIM
 70
     0
  9
$DIMTIH
 70
     0
  9
$DIMTOH
 70
     0
  9
$DIMSE1
 70
     0
  9
$DIMSE2
 70
     0
  9
$DIMTAD
 70
     3
  9
$DIMZIN
 70
     8
  9
$DIMBLK
  1

  9
$DIMASO
 70
     1
  9
$DIMSHO
 70
     1
  9
$DIMPOST
  1

  9
$DIMAPOST
  1

  9
$DIMALT
 70
     0
  9
$DIMALTD
 70
     2
  9
$DIMALTF
 40
25.4
  9
$DIMLFAC
 40
1.0
  9
$DIMTOFL
 70
     1
  9
$DIMTVP
 40
0.7
  9
$DIMTIX
 70
     0
  9
$DIMSOXD
 70
     0
  9
$DIMSAH
 70
     0
  9
$DIMBLK1
  1

  9
$DIMBLK2
  1

  9
$DIMSTYLE
  2
Standard
  9
$DIMCLRD
 70
     0
  9
$DIMCLRE
 70
     0
  9
$DIMCLRT
 70
     0
  9
$DIMTFAC
 40
0.5
  9
$DIMGAP
 40
0.09
  9
$DIMJUST
 70
     0
  9
$DIMSD1
 70
     0
  9
$DIMSD2
 70
     0
  9
$DIMTOLJ
 70
     1
  9
$DIMTZIN
 70
     8
  9
$DIMALTZ
 70
     0
  9
$DIMALTTZ
 70
     0
  9
$DIMUPT
 70
     1
  9
$DIMDEC
 70
     2
  9
$DIMTDEC
 70
     4
  9
$DIMALTU
 70
     2
  9
$DIMALTTD
 70
     2
  9
$DIMTXSTY
  7
Standard
  9
$DIMAUNIT
 70
     0
  9
$DIMADEC
 70
     0
  9
$DIMALTRND
 40
0.0
  9
$DIMAZIN
 70
     0
  9
$DIMDSEP
 70
    46
  9
$DIMATFIT
 70
     2
  9
$DIMFRAC
 70
     0
  9
$DIMLDRBLK
  1

  9
$DIMLUNIT
 70
     2
  9
$DIMLWD
 70
    -2
  9
$DIMLWE
 70
    -2
  9
$DIMTMOVE
 70
     2
  9
$DIMFXL
 40
1.0
  9
$DIMFXLON
 70
     0
  9
$DIMJOGANG
 40
0.7853981633974483
  9
$DIMTFILL
 70
     0
  9
$DIMTFILLCLR
 70
     0
  9
$DIMARCSYM
 70
     0
  9
$DIMLTYPE
  6

  9
$DIMLTEX1
  6

  9
$DIMLTEX2
  6

  9
$DIMTXTDIRECTION
 70
     0
  9
$LUNITS
 70
     2
  9
$LUPREC
 70
     4
  9
$SKETCHINC
 40
0.1
  9
$FILLETRAD
 40
0.5
  9
$AUNITS
 70
     0
  9
$AUPREC
 70
     0
  9
$MENU
  1
.
  9
$ELEVATION
 40
0.0
  9
$PELEVATION
 40
0.0
  9
$THICKNESS
 40
0.0
  9
$LIMCHECK
 70
     0
  9
$CHAMFERA
 40
0.0
  9
$CHAMFERB
 40
0.0
  9
$CHAMFERC
 40
0.0
  9
$CHAMFERD
 40
0.0
  9
$SKPOLY
 70
     0
  9
$TDCREATE
 40
2459789.777361111
  9
$TDUCREATE
 40
2459789.402361111
  9
$TDUPDATE
 40
2459789.402366771
  9
$TDUUPDATE
 40
2459789.027366771
  9
$TDINDWG
 40
0.0000000116
  9
$TDUSRTIMER
 40
0.0000000116
  9
$USRTIMER
 70
     1
  9
$ANGBASE
 50
0.0
  9
$ANGDIR
 70
     0
  9
$PDMODE
 70
     0
  9
$PDSIZE
 40
0.0
  9
$PLINEWID
 40
0.0
  9
$SPLFRAME
 70
     0
  9
$SPLINETYPE
 70
     6
  9
$SPLINESEGS
 70
     8
  9
$HANDSEED
  5
333
  9
$SURFTAB1
 70
     6
  9
$SURFTAB2
 70
     6
  9
$SURFTYPE
 70
     6
  9
$SURFU
 70
     6
  9
$SURFV
 70
     6
  9
$UCSBASE
  2

  9
$UCSNAME
  2

  9
$UCSORG
 10
0.0
 20
0.0
 30
0.0
  9
$UCSXDIR
 10
1.0
 20
0.0
 30
0.0
  9
$UCSYDIR
 10
0.0
 20
1.0
 30
0.0
  9
$UCSORTHOREF
  2

  9
$UCSORTHOVIEW
 70
     0
  9
$UCSORGTOP
 10
0.0
 20
0.0
 30
0.0
  9
$UCSORGBOTTOM
 10
0.0
 20
0.0
 30
0.0
  9
$UCSORGLEFT
 10
0.0
 20
0.0
 30
0.0
  9
$UCSORGRIGHT
 10
0.0
 20
0.0
 30
0.0
  9
$UCSORGFRONT
 10
0.0
 20
0.0
 30
0.0
  9
$UCSORGBACK
 10
0.0
 20
0.0
 30
0.0
  9
$PUCSBASE
  2

  9
$PUCSNAME
  2

  9
$PUCSORG
 10
0.0
 20
0.0
 30
0.0
  9
$PUCSXDIR
 10
1.0
 20
0.0
 30
0.0
  9
$PUCSYDIR
 10
0.0
 20
1.0
 30
0.0
  9
$PUCSORTHOREF
  2

  9
$PUCSORTHOVIEW
 70
     0
  9
$PUCSORGTOP
 10
0.0
 20
0.0
 30
0.0
  9
$PUCSORGBOTTOM
 10
0.0
 20
0.0
 30
0.0
  9
$PUCSORGLEFT
 10
0.0
 20
0.0
 30
0.0
  9
$PUCSORGRIGHT
 10
0.0
 20
0.0
 30
0.0
  9
$PUCSORGFRONT
 10
0.0
 20
0.0
 30
0.0
  9
$PUCSORGBACK
 10
0.0
 20
0.0
 30
0.0
  9
$USERI1
 70
     0
  9
$USERI2
 70
     0
  9
$USERI3
 70
     0
  9
$USERI4
 70
     0
  9
$USERI5
 70
     0
  9
$USERR1
 40
0.0
  9
$USERR2
 40
0.0
  9
$USERR3
 40
0.0
  9
$USERR4
 40
0.0
  9
$USERR5
 40
0.0
  9
$WORLDVIEW
 70
     1
  9
$SHADEDGE
 70
     3
  9
$SHADEDIF
 70
    70
  9
$TILEMODE
 70
     1
  9
$MAXACTVP
 70
    64
  9
$PINSBASE
 10
0.0
 20
0.0
 30
0.0
  9
$PLIMCHECK
 70
     0
  9
$PEXTMIN
 10
0.0
 20
0.0
 30
0.0
  9
$PEXTMAX
 10
210.0
 20
297.0
 30
0.0
  9
$PLIMMIN
 10
0.0
 20
0.0
  9
$PLIMMAX
 10
210.0
 20
297.0
  9
$UNITMODE
 70
     0
  9
$VISRETAIN
 70
     1
  9
$PLINEGEN
 70
     0
  9
$PSLTSCALE
 70
     1
  9
$TREEDEPTH
 70
  3020
  9
$CMLSTYLE
  2
Standard
  9
$CMLJUST
 70
     0
  9
$CMLSCALE
 40
1.0
  9
$PROXYGRAPHICS
 70
     1
  9
$MEASUREMENT
 70
     1
  9
$CELWEIGHT
370
    -1
  9
$ENDCAPS
280
     0
  9
$JOINSTYLE
280
     0
  9
$LWDISPLAY
290
     0
  9
$INSUNITS
 70
     4
  9
$HYPERLINKBASE
  1

  9
$STYLESHEET
  1

  9
$XEDIT
290
     1
  9
$CEPSNTYPE
380
     0
  9
$PSTYLEMODE
290
     1
  9
$FINGERPRINTGUID
  2
{1d404abc-2ad3-445a-ace4-aa97685a5f7d}
  9
$VERSIONGUID
  2
{FAEB1C32-E019-11D5-929B-00C0DF256EC4}
  9
$EXTNAMES
290
     1
  9
$PSVPSCALE
 40
0.0
  9
$OLESTARTUP
290
     0
  9
$SORTENTS
280
   127
  9
$INDEXCTL
280
     0
  9
$HIDETEXT
280
     1
  9
$XCLIPFRAME
280
     2
  9
$HALOGAP
280
     0
  9
$OBSCOLOR
 70
   257
  9
$OBSLTYPE
280
     0
  9
$INTERSECTIONDISPLAY
280
     0
  9
$INTERSECTIONCOLOR
 70
   257
  9
$DIMASSOC
280
     1
  9
$PROJECTNAME
  1

  9
$CAMERADISPLAY
290
     0
  9
$LENSLENGTH
 40
50.0
  9
$CAMERAHEIGHT
 40
0.0
  9
$STEPSPERSEC
 40
2.0
  9
$STEPSIZE
 40
6.0
  9
$3DDWFPREC
 40
2.0
  9
$PSOLWIDTH
 40
0.25
  9
$PSOLHEIGHT
 40
4.0
  9
$LOFTANG1
 40
1.570796326794897
  9
$LOFTANG2
 40
1.570796326794897
  9
$LOFTMAG1
 40
0.0
  9
$LOFTMAG2
 40
0.0
  9
$LOFTPARAM
 70
     7
  9
$LOFTNORMALS
280
     1
  9
$LATITUDE
 40
37.795
  9
$LONGITUDE
 40
-122.394
  9
$NORTHDIRECTION
 40
0.0
  9
$TIMEZONE
 70
 -8000
  9
$LIGHTGLYPHDISPLAY
280
     1
  9
$TILEMODELIGHTSYNCH
280
     1
  9
$CMATERIAL
347
44
  9
$SOLIDHIST
280
     0
  9
$SHOWHIST
280
     1
  9
$DWFFRAME
280
     2
  9
$DGNFRAME
280
     2
  9
$REALWORLDSCALE
290
     1
  9
$INTERFERECOLOR
 62
   256
  9
$CSHADOW
280
     0
  9
$SHADOWPLANELOCATION
 40
0.0
  0
ENDSEC
  0
SECTION
  2
CLASSES
  0
CLASS
  1
ACDBDICTIONARYWDFLT
  2
AcDbDictionaryWithDefault
  3
ObjectDBX Classes
 90
        0
 91
        3
280
     0
281
     0
  0
CLASS
  1
VISUALSTYLE
  2
AcDbVisualStyle
  3
ObjectDBX Classes
 90
     4095
 91
        3
280
     0
281
     0
  0
CLASS
  1
MATERIAL
  2
AcDbMaterial
  3
ObjectDBX Classes
 90
     1153
 91
        3
280
     0
281
     0
  0
CLASS
  1
SCALE
  2
AcDbScale
  3
ObjectDBX Classes
 90
     1153
 91
        3
280
     0
281
     0
  0
CLASS
  1
TABLESTYLE
  2
AcDbTableStyle
  3
ObjectDBX Classes
 90
     4095
 91
        3
280
     0
281
     0
  0
CLASS
  1
MLEADERSTYLE
  2
AcDbMLeaderStyle
  3
ACDB_MLEADERSTYLE_CLASS
 90
     4095
 91
        3
280
     0
281
     0
  0
CLASS
  1
SUN
  2
AcDbSun
  3
SCENEOE
 90
     1153
 91
        3
280
     0
281
     0
  0
CLASS
  1
DICTIONARYVAR
  2
AcDbDictionaryVar
  3
ObjectDBX Classes
 90
        0
 91
        3
280
     0
281
     0
  0
CLASS
  1
CELLSTYLEMAP
  2
AcDbCellStyleMap
  3
ObjectDBX Classes
 90
     1152
 91
        3
280
     0
281
     0
  0
ENDSEC
  0
SECTION
  2
TABLES
  0
TABLE
  2
VPORT
  5
8
330
0
100
AcDbSymbolTable
 70
     1
  0
VPORT
  5
29
330
8
100
AcDbSymbolTableRecord
100
AcDbViewportTableRecord
  2
*Active
 70
     0
 10
0.0
 20
0.0
 11
1.0
 21
1.0
 12
10.42990654205607
 22
4.5
 13
0.0
 23
0.0
 14
0.5
 24
0.5
 15
0.5
 25
0.5
 16
0.0
 26
0.0
 36
1.0
 17
0.0
 27
0.0
 37
0.0
 40
9.0
 41
1.972972972850329
 42
50.0
 43
0.0
 44
0.0
 50
0.0
 51
0.0
 71
     0
 72
   100
 73
     1
 74
     3
 75
     0
 76
     0
 77
     0
 78
     0
281
     0
 65
     1
110
0.0
120
0.0
130
0.0
111
1.0
121
0.0
131
0.0
112
0.0
122
1.0
132
0.0
 79
     0
146
0.0
348
2F
 60
     3
 61
     5
292
     1
282
     1
141
0.0
142
0.0
 63
   250
361
6D
  0
ENDTAB
  0
TABLE
  2
LTYPE
  5
5
330
0
100
AcDbSymbolTable
 70
     9
  0
LTYPE
  5
14
330
5
100
AcDbSymbolTableRecord
100
AcDbLinetypeTableRecord
  2
ByBlock
 70
     0
  3

 72
    65
 73
     0
 40
0.0
  0
LTYPE
  5
15
330
5
100
AcDbSymbolTableRecord
100
AcDbLinetypeTableRecord
  2
ByLayer
 70
     0
  3

 72
    65
 73
     0
 40
0.0
  0
LTYPE
  5
16
330
5
100
AcDbSymbolTableRecord
100
AcDbLinetypeTableRecord
  2
Continuous
 70
     0
  3
Solid line
 72
    65
 73
     0
 40
0.0
  0
LTYPE
  5
BC
330
5
100
AcDbSymbolTableRecord
100
AcDbLinetypeTableRecord
  2
DOT
 70
     0
  3
DOT
 72
    65
 73
     2
 40
4.0
 49
6.0
 74
     0
 49
-2.0
 74
     0
  0
LTYPE
  5
BD
330
5
100
AcDbSymbolTableRecord
100
AcDbLinetypeTableRecord
  2
HIDDEN
 70
     0
  3
HIDDEN
 72
    65
 73
     2
 40
4.2
 49
8.4
 74
     0
 49
-4.2
 74
     0
  0
LTYPE
  5
BE
330
5
100
AcDbSymbolTableRecord
100
AcDbLinetypeTableRecord
  2
DASHDOT
 70
     0
  3
DASHDOT
 72
    65
 73
     4
 40
14.5
 49
30.0
 74
     0
 49
-9.0
 74
     0
 49
2.5
 74
     0
 49
-9.0
 74
     0
  0
LTYPE
  5
BF
330
5
100
AcDbSymbolTableRecord
100
AcDbLinetypeTableRecord
  2
PHANTOM
 70
     0
  3
PHANTOM
 72
    65
 73
     6
 40
12.0
 49
30.0
 74
     0
 49
-9.0
 74
     0
 49
2.5
 74
     0
 49
-5.0
 74
     0
 49
2.5
 74
     0
 49
-9.0
 74
     0
  0
LTYPE
  5
C0
330
5
100
AcDbSymbolTableRecord
100
AcDbLinetypeTableRecord
  2
ACAD_ISO14W100
 70
     0
  3
ACAD_ISO14W100
 72
    65
 73
     8
 40
1.5
 49
12.0
 74
     0
 49
-3.0
 74
     0
 49
0.5
 74
     0
 49
-3.0
 74
     0
 49
0.5
 74
     0
 49
-3.0
 74
     0
 49
0.5
 74
     0
 49
-3.0
 74
     0
  0
LTYPE
  5
C1
330
5
100
AcDbSymbolTableRecord
100
AcDbLinetypeTableRecord
  2
ACAD_ISO06W100
 70
     0
  3
ACAD_ISO06W100
 72
    65
 73
     8
 40
13.5
 49
24.0
 74
     0
 49
-3.0
 74
     0
 49
0.5
 74
     0
 49
-3.0
 74
     0
 49
0.5
 74
     0
 49
-3.0
 74
     0
 49
0.5
 74
     0
 49
-3.0
 74
     0
  0
LTYPE
  5
C2
330
5
100
AcDbSymbolTableRecord
100
AcDbLinetypeTableRecord
  2
ACAD_ISO11W100
 70
     0
  3
ACAD_ISO11W100
 72
    65
 73
     6
 40
15.5
 49
12.0
 74
     0
 49
-3.0
 74
     0
 49
12.0
 74
     0
 49
-3.0
 74
     0
 49
0.5
 74
     0
 49
-3.0
 74
     0
  0
LTYPE
  5
C3
330
5
100
AcDbSymbolTableRecord
100
AcDbLinetypeTableRecord
  2
ACAD_ISO13W100
 70
     0
  3
ACAD_ISO13W100
 72
    65
 73
     8
 40
13.0
 49
12.0
 74
     0
 49
-3.0
 74
     0
 49
12.0
 74
     0
 49
-3.0
 74
     0
 49
0.5
 74
     0
 49
-3.0
 74
     0
 49
0.5
 74
     0
 49
-3.0
 74
     0
  0
ENDTAB
  0
TABLE
  2
LAYER
  5
2
330
0
100
AcDbSymbolTable
 70
     2
  0
LAYER
  5
10
330
2
100
AcDbSymbolTableRecord
100
AcDbLayerTableRecord
  2
0
 70
     0
 62
     7
  6
Continuous
370
    -3
390
F
347
46
348
0
  0
LAYER
  5
C4
330
2
100
AcDbSymbolTableRecord
100
AcDbLayerTableRecord
  2
1
 70
     0
 62
     7
  6
Continuous
370
     9
390
F
347
46
348
0
  0
ENDTAB
  0
TABLE
  2
STYLE
  5
3
330
0
100
AcDbSymbolTable
 70
     3
  0
STYLE
  5
11
330
3
100
AcDbSymbolTableRecord
100
AcDbTextStyleTableRecord
  2
Standard
 70
     0
 40
0.0
 41
1.0
 50
0.0
 71
     0
 42
20.0
  3
txt
  4
bigfont
  0
STYLE
  5
6F
330
3
100
AcDbSymbolTableRecord
100
AcDbTextStyleTableRecord
  2
T_STANDARD
 70
     4
 40
10.0
 41
1.0
 50
0.0
 71
     0
 42
20.0
  3
txt
  4
bigfont
1001
ACAD
1000

1071
      256
  0
STYLE
  5
160
330
3
100
AcDbSymbolTableRecord
100
AcDbTextStyleTableRecord
  2
ＭＳ ゴシック
 70
     0
 40
0.0
 41
1.0
 50
0.0
 71
     0
 42
20.0
  3

  4

1001
ACAD
1000
ＭＳ ゴシック
1071
      256
  0
ENDTAB
  0
TABLE
  2
VIEW
  5
6
330
0
100
AcDbSymbolTable
 70
     0
  0
ENDTAB
  0
TABLE
  2
UCS
  5
7
330
0
100
AcDbSymbolTable
 70
     0
  0
ENDTAB
  0
TABLE
  2
APPID
  5
9
330
0
100
AcDbSymbolTable
 70
     2
  0
APPID
  5
12
330
9
100
AcDbSymbolTableRecord
100
AcDbRegAppTableRecord
  2
ACAD
 70
     0
  0
APPID
  5
6E
330
9
100
AcDbSymbolTableRecord
100
AcDbRegAppTableRecord
  2
ODA
 70
     0
  0
ENDTAB
  0
TABLE
  2
DIMSTYLE
  5
A
330
0
100
AcDbSymbolTable
 70
     1
100
AcDbDimStyleTable
  0
DIMSTYLE
105
27
102
{ACAD_REACTORS
330
16A
330
174
330
17F
330
1AC
330
271
330
284
330
291
330
29B
330
2A5
330
2AF
330
2B6
330
2C0
330
2CA
102
}
330
A
100
AcDbSymbolTableRecord
100
AcDbDimStyleTableRecord
  2
Standard
 70
     0
178
     0
340
11
  0
ENDTAB
  0
TABLE
  2
BLOCK_RECORD
  5
1
330
0
100
AcDbSymbolTable
 70
    29
  0
BLOCK_RECORD
  5
1F
330
1
100
AcDbSymbolTableRecord
100
AcDbBlockTableRecord
  2
*Model_Space
340
22
 70
     0
280
     1
281
     0
  0
BLOCK_RECORD
  5
1B
330
1
100
AcDbSymbolTableRecord
100
AcDbBlockTableRecord
  2
*Paper_Space
340
1E
 70
     0
280
     1
281
     0
  0
BLOCK_RECORD
  5
23
330
1
100
AcDbSymbolTableRecord
100
AcDbBlockTableRecord
  2
*Paper_Space0
340
26
 70
     0
280
     1
281
     0
  0
BLOCK_RECORD
  5
70
330
1
100
AcDbSymbolTableRecord
100
AcDbBlockTableRecord
  2
_ORIGIN
340
0
 70
     0
280
     1
281
     0
  0
BLOCK_RECORD
  5
75
330
1
100
AcDbSymbolTableRecord
100
AcDbBlockTableRecord
  2
_DOTBLANK
340
0
 70
     0
280
     1
281
     0
  0
BLOCK_RECORD
  5
7A
330
1
100
AcDbSymbolTableRecord
100
AcDbBlockTableRecord
  2
_DOT
340
0
102
{BLKREFS
331
157
331
262
102
}
 70
     0
280
     1
281
     0
  0
BLOCK_RECORD
  5
7F
330
1
100
AcDbSymbolTableRecord
100
AcDbBlockTableRecord
  2
_OPEN
340
0
102
{BLKREFS
331
168
331
169
331
172
331
173
331
17D
331
17E
331
1AA
331
1AB
331
26F
331
270
331
282
331
283
331
28F
331
290
331
299
331
29A
331
2A3
331
2A4
331
2AD
331
2AE
331
2BE
331
2BF
331
2C8
331
2C9
102
}
 70
     0
280
     1
281
     0
  0
BLOCK_RECORD
  5
85
330
1
100
AcDbSymbolTableRecord
100
AcDbBlockTableRecord
  2
_CLOSED
340
0
 70
     0
280
     1
281
     0
  0
BLOCK_RECORD
  5
8C
330
1
100
AcDbSymbolTableRecord
100
AcDbBlockTableRecord
  2
_CLOSEDBLANK
340
0
 70
     0
280
     1
281
     0
  0
BLOCK_RECORD
  5
92
330
1
100
AcDbSymbolTableRecord
100
AcDbBlockTableRecord
  2
_ARROWFILLED
340
0
 70
     0
280
     1
281
     0
  0
BLOCK_RECORD
  5
96
330
1
100
AcDbSymbolTableRecord
100
AcDbBlockTableRecord
  2
_BOXBLANK
340
0
 70
     0
280
     1
281
     0
  0
BLOCK_RECORD
  5
9E
330
1
100
AcDbSymbolTableRecord
100
AcDbBlockTableRecord
  2
_BOXFILLED
340
0
 70
     0
280
     1
281
     0
  0
BLOCK_RECORD
  5
A3
330
1
100
AcDbSymbolTableRecord
100
AcDbBlockTableRecord
  2
_INTEGRAL
340
0
 70
     0
280
     1
281
     0
  0
BLOCK_RECORD
  5
A8
330
1
100
AcDbSymbolTableRecord
100
AcDbBlockTableRecord
  2
_OBLIQUE
340
0
 70
     0
280
     1
281
     0
  0
BLOCK_RECORD
  5
AC
330
1
100
AcDbSymbolTableRecord
100
AcDbBlockTableRecord
  2
_NONE
340
0
 70
     0
280
     1
281
     0
  0
BLOCK_RECORD
  5
AF
330
1
100
AcDbSymbolTableRecord
100
AcDbBlockTableRecord
  2
MARK_OPEN
340
0
 70
     0
280
     1
281
     0
  0
BLOCK_RECORD
  5
B4
330
1
100
AcDbSymbolTableRecord
100
AcDbBlockTableRecord
  2
MARK_ORIGIN
340
0
 70
     0
280
     1
281
     0
  0
BLOCK_RECORD
  5
B8
330
1
100
AcDbSymbolTableRecord
100
AcDbBlockTableRecord
  2
MARK_DOT
340
0
 70
     0
280
     1
281
     0
  0
BLOCK_RECORD
  5
161
330
1
100
AcDbSymbolTableRecord
100
AcDbBlockTableRecord
  2
Dim1
340
0
 70
     0
280
     1
281
     0
  0
BLOCK_RECORD
  5
16B
330
1
100
AcDbSymbolTableRecord
100
AcDbBlockTableRecord
  2
Dim2
340
0
 70
     0
280
     1
281
     0
  0
BLOCK_RECORD
  5
176
330
1
100
AcDbSymbolTableRecord
100
AcDbBlockTableRecord
  2
Dim3
340
0
 70
     0
280
     1
281
     0
  0
BLOCK_RECORD
  5
1A3
330
1
100
AcDbSymbolTableRecord
100
AcDbBlockTableRecord
  2
Dim4
340
0
 70
     0
280
     1
281
     0
  0
BLOCK_RECORD
  5
268
330
1
100
AcDbSymbolTableRecord
100
AcDbBlockTableRecord
  2
Dim5
340
0
 70
     0
280
     1
281
     0
  0
BLOCK_RECORD
  5
27B
330
1
100
AcDbSymbolTableRecord
100
AcDbBlockTableRecord
  2
Dim6
340
0
 70
     0
280
     1
281
     0
  0
BLOCK_RECORD
  5
288
330
1
100
AcDbSymbolTableRecord
100
AcDbBlockTableRecord
  2
Dim7
340
0
 70
     0
280
     1
281
     0
  0
BLOCK_RECORD
  5
292
330
1
100
AcDbSymbolTableRecord
100
AcDbBlockTableRecord
  2
Dim8
340
0
 70
     0
280
     1
281
     0
  0
BLOCK_RECORD
  5
29C
330
1
100
AcDbSymbolTableRecord
100
AcDbBlockTableRecord
  2
Dim9
340
0
 70
     0
280
     1
281
     0
  0
BLOCK_RECORD
  5
2A6
330
1
100
AcDbSymbolTableRecord
100
AcDbBlockTableRecord
  2
Dim10
340
0
 70
     0
280
     1
281
     0
  0
BLOCK_RECORD
  5
2B0
330
1
100
AcDbSymbolTableRecord
100
AcDbBlockTableRecord
  2
Dim11
340
0
 70
     0
280
     1
281
     0
  0
BLOCK_RECORD
  5
2B7
330
1
100
AcDbSymbolTableRecord
100
AcDbBlockTableRecord
  2
Dim12
340
0
 70
     0
280
     1
281
     0
  0
BLOCK_RECORD
  5
2C1
330
1
100
AcDbSymbolTableRecord
100
AcDbBlockTableRecord
  2
Dim13
340
0
 70
     0
280
     1
281
     0
  0
ENDTAB
  0
ENDSEC
  0
SECTION
  2
BLOCKS
  0
BLOCK
  5
20
330
1F
100
AcDbEntity
  8
0
100
AcDbBlockBegin
  2
*Model_Space
 70
     0
 10
0.0
 20
0.0
 30
0.0
  3
*Model_Space
  1

  0
ENDBLK
  5
21
330
1F
100
AcDbEntity
  8
0
100
AcDbBlockEnd
  0
BLOCK
  5
1C
330
1B
100
AcDbEntity
 67
     1
  8
0
100
AcDbBlockBegin
  2
*Paper_Space
 70
     0
 10
0.0
 20
0.0
 30
0.0
  3
*Paper_Space
  1

  0
ENDBLK
  5
1D
330
1B
100
AcDbEntity
 67
     1
  8
0
100
AcDbBlockEnd
  0
BLOCK
  5
24
330
23
100
AcDbEntity
  8
0
100
AcDbBlockBegin
  2
*Paper_Space0
 70
     0
 10
0.0
 20
0.0
 30
0.0
  3
*Paper_Space0
  1

  0
ENDBLK
  5
25
330
23
100
AcDbEntity
  8
0
100
AcDbBlockEnd
  0
BLOCK
  5
73
330
70
100
AcDbEntity
  8
0
100
AcDbBlockBegin
  2
_ORIGIN
 70
     0
 10
0.0
 20
0.0
 30
0.0
  3
_ORIGIN
  1

  0
CIRCLE
  5
71
330
70
100
AcDbEntity
  8
0
 62
     0
100
AcDbCircle
 10
0.0
 20
0.0
 30
0.0
 40
0.5
  0
LINE
  5
72
330
70
100
AcDbEntity
  8
0
 62
     0
100
AcDbLine
 10
0.0
 20
0.0
 30
0.0
 11
-1.0
 21
0.0
 31
0.0
  0
ENDBLK
  5
74
330
70
100
AcDbEntity
  8
0
100
AcDbBlockEnd
  0
BLOCK
  5
78
330
75
100
AcDbEntity
  8
0
100
AcDbBlockBegin
  2
_DOTBLANK
 70
     0
 10
0.0
 20
0.0
 30
0.0
  3
_DOTBLANK
  1

  0
CIRCLE
  5
76
330
75
100
AcDbEntity
  8
0
 62
     0
100
AcDbCircle
 10
0.0
 20
0.0
 30
0.0
 40
0.5
  0
LINE
  5
77
330
75
100
AcDbEntity
  8
0
 62
     0
100
AcDbLine
 10
-0.5
 20
0.0
 30
0.0
 11
-1.0
 21
0.0
 31
0.0
  0
ENDBLK
  5
79
330
75
100
AcDbEntity
  8
0
100
AcDbBlockEnd
  0
BLOCK
  5
7D
330
7A
100
AcDbEntity
  8
0
100
AcDbBlockBegin
  2
_DOT
 70
     0
 10
0.0
 20
0.0
 30
0.0
  3
_DOT
  1

  0
LWPOLYLINE
  5
7B
330
7A
100
AcDbEntity
  8
0
 62
     0
100
AcDbPolyline
 90
        2
 70
     1
 43
0.5
 10
-0.25
 20
0.0
 42
1.0
 10
0.25
 20
0.0
 42
1.0
  0
LINE
  5
7C
330
7A
100
AcDbEntity
  8
0
 62
     0
100
AcDbLine
 10
-0.5
 20
0.0
 30
0.0
 11
-1.0
 21
0.0
 31
0.0
  0
ENDBLK
  5
7E
330
7A
100
AcDbEntity
  8
0
100
AcDbBlockEnd
  0
BLOCK
  5
83
330
7F
100
AcDbEntity
  8
0
100
AcDbBlockBegin
  2
_OPEN
 70
     0
 10
0.0
 20
0.0
 30
0.0
  3
_OPEN
  1

  0
LINE
  5
80
330
7F
100
AcDbEntity
  8
0
 62
     0
100
AcDbLine
 10
0.0
 20
0.0
 30
0.0
 11
-1.0
 21
0.1666666666666667
 31
0.0
  0
LINE
  5
81
330
7F
100
AcDbEntity
  8
0
 62
     0
100
AcDbLine
 10
0.0
 20
0.0
 30
0.0
 11
-1.0
 21
-0.1666666666666667
 31
0.0
  0
LINE
  5
82
330
7F
100
AcDbEntity
  8
0
 62
     0
100
AcDbLine
 10
0.0
 20
0.0
 30
0.0
 11
-1.0
 21
0.0
 31
0.0
  0
ENDBLK
  5
84
330
7F
100
AcDbEntity
  8
0
100
AcDbBlockEnd
  0
BLOCK
  5
8A
330
85
100
AcDbEntity
  8
0
100
AcDbBlockBegin
  2
_CLOSED
 70
     0
 10
0.0
 20
0.0
 30
0.0
  3
_CLOSED
  1

  0
LINE
  5
86
330
85
100
AcDbEntity
  8
0
 62
     0
100
AcDbLine
 10
0.0
 20
0.0
 30
0.0
 11
-1.0
 21
0.1666666666666667
 31
0.0
  0
LINE
  5
87
330
85
100
AcDbEntity
  8
0
 62
     0
100
AcDbLine
 10
0.0
 20
0.0
 30
0.0
 11
-1.0
 21
-0.1666666666666667
 31
0.0
  0
LINE
  5
88
330
85
100
AcDbEntity
  8
0
 62
     0
100
AcDbLine
 10
-1.0
 20
0.1666666666666667
 30
0.0
 11
-1.0
 21
-0.1666666666666667
 31
0.0
  0
LINE
  5
89
330
85
100
AcDbEntity
  8
0
 62
     0
100
AcDbLine
 10
0.0
 20
0.0
 30
0.0
 11
-1.0
 21
0.0
 31
0.0
  0
ENDBLK
  5
8B
330
85
100
AcDbEntity
  8
0
100
AcDbBlockEnd
  0
BLOCK
  5
90
330
8C
100
AcDbEntity
  8
0
100
AcDbBlockBegin
  2
_CLOSEDBLANK
 70
     0
 10
0.0
 20
0.0
 30
0.0
  3
_CLOSEDBLANK
  1

  0
LINE
  5
8D
330
8C
100
AcDbEntity
  8
0
 62
     0
100
AcDbLine
 10
0.0
 20
0.0
 30
0.0
 11
-1.0
 21
0.1666666666666667
 31
0.0
  0
LINE
  5
8E
330
8C
100
AcDbEntity
  8
0
 62
     0
100
AcDbLine
 10
0.0
 20
0.0
 30
0.0
 11
-1.0
 21
-0.1666666666666667
 31
0.0
  0
LINE
  5
8F
330
8C
100
AcDbEntity
  8
0
 62
     0
100
AcDbLine
 10
-1.0
 20
0.1666666666666667
 30
0.0
 11
-1.0
 21
-0.1666666666666667
 31
0.0
  0
ENDBLK
  5
91
330
8C
100
AcDbEntity
  8
0
100
AcDbBlockEnd
  0
BLOCK
  5
94
330
92
100
AcDbEntity
  8
0
100
AcDbBlockBegin
  2
_ARROWFILLED
 70
     0
 10
0.0
 20
0.0
 30
0.0
  3
_ARROWFILLED
  1

  0
SOLID
  5
93
330
92
100
AcDbEntity
  8
0
 62
     0
100
AcDbTrace
 10
0.0
 20
0.0
 30
0.0
 11
-1.0
 21
-0.1666666666666667
 31
0.0
 12
-1.0
 22
0.1666666666666667
 32
0.0
 13
0.0
 23
0.0
 33
0.0
  0
ENDBLK
  5
95
330
92
100
AcDbEntity
  8
0
100
AcDbBlockEnd
  0
BLOCK
  5
9C
330
96
100
AcDbEntity
  8
0
100
AcDbBlockBegin
  2
_BOXBLANK
 70
     0
 10
0.0
 20
0.0
 30
0.0
  3
_BOXBLANK
  1

  0
LINE
  5
97
330
96
100
AcDbEntity
  8
0
 62
     0
100
AcDbLine
 10
-0.5
 20
-0.5
 30
0.0
 11
0.5
 21
-0.5
 31
0.0
  0
LINE
  5
98
330
96
100
AcDbEntity
  8
0
 62
     0
100
AcDbLine
 10
0.5
 20
-0.5
 30
0.0
 11
0.5
 21
0.5
 31
0.0
  0
LINE
  5
99
330
96
100
AcDbEntity
  8
0
 62
     0
100
AcDbLine
 10
0.5
 20
0.5
 30
0.0
 11
-0.5
 21
0.5
 31
0.0
  0
LINE
  5
9A
330
96
100
AcDbEntity
  8
0
 62
     0
100
AcDbLine
 10
-0.5
 20
0.5
 30
0.0
 11
-0.5
 21
-0.5
 31
0.0
  0
LINE
  5
9B
330
96
100
AcDbEntity
  8
0
 62
     0
100
AcDbLine
 10
-0.5
 20
0.0
 30
0.0
 11
-1.0
 21
0.0
 31
0.0
  0
ENDBLK
  5
9D
330
96
100
AcDbEntity
  8
0
100
AcDbBlockEnd
  0
BLOCK
  5
A1
330
9E
100
AcDbEntity
  8
0
100
AcDbBlockBegin
  2
_BOXFILLED
 70
     0
 10
0.0
 20
0.0
 30
0.0
  3
_BOXFILLED
  1

  0
SOLID
  5
9F
330
9E
100
AcDbEntity
  8
0
 62
     0
100
AcDbTrace
 10
-0.5
 20
0.5
 30
0.0
 11
0.5
 21
0.5
 31
0.0
 12
-0.5
 22
-0.5
 32
0.0
 13
0.5
 23
-0.5
 33
0.0
  0
LINE
  5
A0
330
9E
100
AcDbEntity
  8
0
 62
     0
100
AcDbLine
 10
-0.5
 20
0.0
 30
0.0
 11
-1.0
 21
0.0
 31
0.0
  0
ENDBLK
  5
A2
330
9E
100
AcDbEntity
  8
0
100
AcDbBlockEnd
  0
BLOCK
  5
A6
330
A3
100
AcDbEntity
  8
0
100
AcDbBlockBegin
  2
_INTEGRAL
 70
     0
 10
0.0
 20
0.0
 30
0.0
  3
_INTEGRAL
  1

  0
ARC
  5
A4
330
A3
100
AcDbEntity
  8
0
 62
     0
100
AcDbCircle
 10
0.444888
 20
-0.0913346
 30
0.0
 40
0.4541666
100
AcDbArc
 50
101.9999999999999
 51
167.9999999999998
  0
ARC
  5
A5
330
A3
100
AcDbEntity
  8
0
 62
     0
100
AcDbCircle
 10
-0.444888
 20
0.0913346
 30
0.0
 40
0.4541666
100
AcDbArc
 50
281.9999999999997
 51
347.9999999999997
  0
ENDBLK
  5
A7
330
A3
100
AcDbEntity
  8
0
100
AcDbBlockEnd
  0
BLOCK
  5
AA
330
A8
100
AcDbEntity
  8
0
100
AcDbBlockBegin
  2
_OBLIQUE
 70
     0
 10
0.0
 20
0.0
 30
0.0
  3
_OBLIQUE
  1

  0
LINE
  5
A9
330
A8
100
AcDbEntity
  8
0
 62
     0
100
AcDbLine
 10
-0.5
 20
-0.5
 30
0.0
 11
0.5
 21
0.5
 31
0.0
  0
ENDBLK
  5
AB
330
A8
100
AcDbEntity
  8
0
100
AcDbBlockEnd
  0
BLOCK
  5
AD
330
AC
100
AcDbEntity
  8
0
100
AcDbBlockBegin
  2
_NONE
 70
     0
 10
0.0
 20
0.0
 30
0.0
  3
_NONE
  1

  0
ENDBLK
  5
AE
330
AC
100
AcDbEntity
  8
0
100
AcDbBlockEnd
  0
BLOCK
  5
B2
330
AF
100
AcDbEntity
  8
0
100
AcDbBlockBegin
  2
MARK_OPEN
 70
     0
 10
0.0
 20
0.0
 30
0.0
  3
MARK_OPEN
  1

  0
LINE
  5
B0
330
AF
100
AcDbEntity
  8
0
 62
     0
100
AcDbLine
 10
0.0
 20
0.0
 30
0.0
 11
-1.0
 21
0.1666666666666667
 31
0.0
  0
LINE
  5
B1
330
AF
100
AcDbEntity
  8
0
 62
     0
100
AcDbLine
 10
0.0
 20
0.0
 30
0.0
 11
-1.0
 21
-0.1666666666666667
 31
0.0
  0
ENDBLK
  5
B3
330
AF
100
AcDbEntity
  8
0
100
AcDbBlockEnd
  0
BLOCK
  5
B6
330
B4
100
AcDbEntity
  8
0
100
AcDbBlockBegin
  2
MARK_ORIGIN
 70
     0
 10
0.0
 20
0.0
 30
0.0
  3
MARK_ORIGIN
  1

  0
CIRCLE
  5
B5
330
B4
100
AcDbEntity
  8
0
 62
     0
100
AcDbCircle
 10
0.0
 20
0.0
 30
0.0
 40
0.5
  0
ENDBLK
  5
B7
330
B4
100
AcDbEntity
  8
0
100
AcDbBlockEnd
  0
BLOCK
  5
BA
330
B8
100
AcDbEntity
  8
0
100
AcDbBlockBegin
  2
MARK_DOT
 70
     0
 10
0.0
 20
0.0
 30
0.0
  3
MARK_DOT
  1

  0
LWPOLYLINE
  5
B9
330
B8
100
AcDbEntity
  8
0
 62
     0
100
AcDbPolyline
 90
        2
 70
     1
 43
0.5
 10
-0.25
 20
0.0
 42
1.0
 10
0.25
 20
0.0
 42
1.0
  0
ENDBLK
  5
BB
330
B8
100
AcDbEntity
  8
0
100
AcDbBlockEnd
  0
BLOCK
  5
162
330
161
100
AcDbEntity
  8
0
100
AcDbBlockBegin
  2
Dim1
 70
     0
 10
0.0
 20
0.0
 30
0.0
  3
Dim1
  1

  0
LINE
  5
164
330
161
100
AcDbEntity
  8
1
  6
PHANTOM
 62
     7
370
    30
100
AcDbLine
 10
547.2185663924797
 20
624.0156446646307
 30
0.0
 11
547.2185663924798
 21
722.1639668999085
 31
0.0
  0
LINE
  5
165
330
161
100
AcDbEntity
  8
1
  6
PHANTOM
 62
     7
370
    30
100
AcDbLine
 10
692.2185663924797
 20
622.544956585247
 30
0.0
 11
692.2185663924798
 21
722.1639668999085
 31
0.0
  0
LINE
  5
166
330
161
100
AcDbEntity
  8
1
  6
PHANTOM
 62
     7
370
    30
100
AcDbLine
 10
547.2185663924798
 20
714.1639668999085
 30
0.0
 11
692.2185663924798
 21
714.1639668999085
 31
0.0
  0
MTEXT
  5
167
330
161
100
AcDbEntity
  8
1
  6
Continuous
 62
     7
370
     9
100
AcDbMText
 10
626.2845690033735
 20
714.1639668999085
 30
0.0
 40
14.0
 41
170.0
 46
14.0
 71
     8
 72
     1
  1
145
  7
ＭＳ ゴシック
 73
     1
 44
1.0
1001
ACAD
1000
ACAD_MTEXT_DEFINED_HEIGHT_BEGIN
1070
    46
1040
14.0
1000
ACAD_MTEXT_DEFINED_HEIGHT_END
  0
INSERT
  5
168
330
161
100
AcDbEntity
  8
1
  6
PHANTOM
 62
     7
370
    30
100
AcDbBlockReference
  2
_OPEN
 10
547.2185663924798
 20
714.1639668999085
 30
0.0
 41
16.0
 42
16.0
 43
16.0
 50
179.9999999999998
  0
INSERT
  5
169
330
161
100
AcDbEntity
  8
1
  6
PHANTOM
 62
     7
370
    30
100
AcDbBlockReference
  2
_OPEN
 10
692.2185663924798
 20
714.1639668999085
 30
0.0
 41
16.0
 42
16.0
 43
16.0
 50
359.9999999999997
  0
ENDBLK
  5
163
330
161
100
AcDbEntity
  8
0
100
AcDbBlockEnd
  0
BLOCK
  5
16C
330
16B
100
AcDbEntity
  8
0
100
AcDbBlockBegin
  2
Dim2
 70
     0
 10
0.0
 20
0.0
 30
0.0
  3
Dim2
  1

  0
LINE
  5
16E
330
16B
100
AcDbEntity
  8
1
  6
PHANTOM
 62
     7
370
    30
100
AcDbLine
 10
570.2258145967935
 20
659.0000002416957
 30
0.0
 11
508.1811612477929
 21
659.000000241696
 31
0.0
  0
LINE
  5
16F
330
16B
100
AcDbEntity
  8
1
  6
PHANTOM
 62
     7
370
    30
100
AcDbLine
 10
568.9849215287553
 20
653.000000040687
 30
0.0
 11
508.1811612477929
 21
653.0000000406872
 31
0.0
  0
LINE
  5
170
330
16B
100
AcDbEntity
  8
1
  6
PHANTOM
 62
     7
370
    30
100
AcDbLine
 10
516.1811612477929
 20
691.000000241696
 30
0.0
 11
516.1811612477929
 21
621.0000000406872
 31
0.0
  0
MTEXT
  5
171
330
16B
100
AcDbEntity
  8
1
  6
Continuous
 62
     7
370
     9
100
AcDbMText
 10
516.1811612477929
 20
671.5986189432567
 30
0.0
 40
14.0
 41
43.33333333333333
 46
14.0
 71
     7
 72
     1
  1
6
  7
ＭＳ ゴシック
 11
1.615544574432587E-15
 21
1.0
 31
0.0
 73
     1
 44
1.0
1001
ACAD
1000
ACAD_MTEXT_DEFINED_HEIGHT_BEGIN
1070
    46
1040
14.0
1000
ACAD_MTEXT_DEFINED_HEIGHT_END
  0
INSERT
  5
172
330
16B
100
AcDbEntity
  8
1
  6
PHANTOM
 62
     7
370
    30
100
AcDbBlockReference
  2
_OPEN
 10
516.1811612477929
 20
659.000000241696
 30
0.0
 41
16.0
 42
16.0
 43
16.0
 50
269.9999999999998
  0
INSERT
  5
173
330
16B
100
AcDbEntity
  8
1
  6
PHANTOM
 62
     7
370
    30
100
AcDbBlockReference
  2
_OPEN
 10
516.1811612477929
 20
653.0000000406872
 30
0.0
 41
16.0
 42
16.0
 43
16.0
 50
89.99999999999959
  0
ENDBLK
  5
16D
330
16B
100
AcDbEntity
  8
0
100
AcDbBlockEnd
  0
BLOCK
  5
177
330
176
100
AcDbEntity
  8
0
100
AcDbBlockBegin
  2
Dim3
 70
     0
 10
0.0
 20
0.0
 30
0.0
  3
Dim3
  1

  0
LINE
  5
179
330
176
100
AcDbEntity
  8
1
  6
PHANTOM
 62
     7
370
    30
100
AcDbLine
 10
236.0685663924796
 20
355.2061830290862
 30
0.0
 11
236.0685663924795
 21
324.7190872376431
 31
0.0
  0
LINE
  5
17A
330
176
100
AcDbEntity
  8
1
  6
PHANTOM
 62
     7
370
    30
100
AcDbLine
 10
353.3685663924796
 20
355.8189697288294
 30
0.0
 11
353.3685663924795
 21
324.7190872376431
 31
0.0
  0
LINE
  5
17B
330
176
100
AcDbEntity
  8
1
  6
PHANTOM
 62
     7
370
    30
100
AcDbLine
 10
236.0685663924795
 20
332.7190872376431
 30
0.0
 11
353.3685663924795
 21
332.7190872376431
 31
0.0
  0
MTEXT
  5
17C
330
176
100
AcDbEntity
  8
1
  6
Continuous
 62
     7
370
     9
100
AcDbMText
 10
294.7185663924797
 20
332.7190872376431
 30
0.0
 40
14.0
 41
326.56
 46
14.0
 71
     8
 72
     1
  1
φ117.3
  7
ＭＳ ゴシック
 73
     1
 44
1.0
1001
ACAD
1000
ACAD_MTEXT_DEFINED_HEIGHT_BEGIN
1070
    46
1040
14.0
1000
ACAD_MTEXT_DEFINED_HEIGHT_END
  0
INSERT
  5
17D
330
176
100
AcDbEntity
  8
1
  6
PHANTOM
 62
     7
370
    30
100
AcDbBlockReference
  2
_OPEN
 10
236.0685663924795
 20
332.7190872376431
 30
0.0
 41
16.0
 42
16.0
 43
16.0
 50
179.9999999999998
  0
INSERT
  5
17E
330
176
100
AcDbEntity
  8
1
  6
PHANTOM
 62
     7
370
    30
100
AcDbBlockReference
  2
_OPEN
 10
353.3685663924795
 20
332.7190872376431
 30
0.0
 41
16.0
 42
16.0
 43
16.0
 50
359.9999999999997
  0
ENDBLK
  5
178
330
176
100
AcDbEntity
  8
0
100
AcDbBlockEnd
  0
BLOCK
  5
1A4
330
1A3
100
AcDbEntity
  8
0
100
AcDbBlockBegin
  2
Dim4
 70
     0
 10
0.0
 20
0.0
 30
0.0
  3
Dim4
  1

  0
LINE
  5
1A6
330
1A3
100
AcDbEntity
  8
1
  6
PHANTOM
 62
     7
370
    30
100
AcDbLine
 10
237.5685663924797
 20
672.0874556169705
 30
0.0
 11
237.5685663924797
 21
691.8655436429285
 31
0.0
  0
LINE
  5
1A7
330
1A3
100
AcDbEntity
  8
1
  6
PHANTOM
 62
     7
370
    30
100
AcDbLine
 10
351.8685663924797
 20
672.0874556169704
 30
0.0
 11
351.8685663924797
 21
691.8655436429285
 31
0.0
  0
LINE
  5
1A8
330
1A3
100
AcDbEntity
  8
1
  6
PHANTOM
 62
     7
370
    30
100
AcDbLine
 10
237.5685663924797
 20
683.8655436429285
 30
0.0
 11
351.8685663924797
 21
683.8655436429285
 31
0.0
  0
MTEXT
  5
1A9
330
1A3
100
AcDbEntity
  8
1
  6
Continuous
 62
     7
370
     9
100
AcDbMText
 10
294.7185663924797
 20
683.8655436429285
 30
0.0
 40
14.0
 41
326.56
 46
14.0
 71
     8
 72
     1
  1
φ114.3
  7
ＭＳ ゴシック
 73
     1
 44
1.0
1001
ACAD
1000
ACAD_MTEXT_DEFINED_HEIGHT_BEGIN
1070
    46
1040
14.0
1000
ACAD_MTEXT_DEFINED_HEIGHT_END
  0
INSERT
  5
1AA
330
1A3
100
AcDbEntity
  8
1
  6
PHANTOM
 62
     7
370
    30
100
AcDbBlockReference
  2
_OPEN
 10
237.5685663924797
 20
683.8655436429285
 30
0.0
 41
16.0
 42
16.0
 43
16.0
 50
179.9999999999998
  0
INSERT
  5
1AB
330
1A3
100
AcDbEntity
  8
1
  6
PHANTOM
 62
     7
370
    30
100
AcDbBlockReference
  2
_OPEN
 10
351.8685663924797
 20
683.8655436429285
 30
0.0
 41
16.0
 42
16.0
 43
16.0
 50
359.9999999999997
  0
ENDBLK
  5
1A5
330
1A3
100
AcDbEntity
  8
0
100
AcDbBlockEnd
  0
BLOCK
  5
269
330
268
100
AcDbEntity
  8
0
100
AcDbBlockBegin
  2
Dim5
 70
     0
 10
0.0
 20
0.0
 30
0.0
  3
Dim5
  1

  0
LINE
  5
26B
330
268
100
AcDbEntity
  8
1
  6
PHANTOM
 62
     7
370
    30
100
AcDbLine
 10
570.2258145967935
 20
368.0000003625367
 30
0.0
 11
508.1811612477929
 21
368.0000003625369
 31
0.0
  0
LINE
  5
26C
330
268
100
AcDbEntity
  8
1
  6
PHANTOM
 62
     7
370
    30
100
AcDbLine
 10
568.9849215287553
 20
362.000000161528
 30
0.0
 11
508.1811612477929
 21
362.0000001615281
 31
0.0
  0
LINE
  5
26D
330
268
100
AcDbEntity
  8
1
  6
PHANTOM
 62
     7
370
    30
100
AcDbLine
 10
516.1811612477929
 20
400.0000003625369
 30
0.0
 11
516.1811612477929
 21
330.0000001615281
 31
0.0
  0
MTEXT
  5
26E
330
268
100
AcDbEntity
  8
1
  6
Continuous
 62
     7
370
     9
100
AcDbMText
 10
516.1811612477929
 20
380.5986190640976
 30
0.0
 40
14.0
 41
43.33333333333333
 46
14.0
 71
     7
 72
     1
  1
6
  7
ＭＳ ゴシック
 11
1.615544574432587E-15
 21
1.0
 31
0.0
 73
     1
 44
1.0
1001
ACAD
1000
ACAD_MTEXT_DEFINED_HEIGHT_BEGIN
1070
    46
1040
14.0
1000
ACAD_MTEXT_DEFINED_HEIGHT_END
  0
INSERT
  5
26F
330
268
100
AcDbEntity
  8
1
  6
PHANTOM
 62
     7
370
    30
100
AcDbBlockReference
  2
_OPEN
 10
516.1811612477929
 20
368.0000003625369
 30
0.0
 41
16.0
 42
16.0
 43
16.0
 50
269.9999999999998
  0
INSERT
  5
270
330
268
100
AcDbEntity
  8
1
  6
PHANTOM
 62
     7
370
    30
100
AcDbBlockReference
  2
_OPEN
 10
516.1811612477929
 20
362.0000001615281
 30
0.0
 41
16.0
 42
16.0
 43
16.0
 50
89.99999999999959
  0
ENDBLK
  5
26A
330
268
100
AcDbEntity
  8
0
100
AcDbBlockEnd
  0
BLOCK
  5
27C
330
27B
100
AcDbEntity
  8
0
100
AcDbBlockBegin
  2
Dim6
 70
     0
 10
0.0
 20
0.0
 30
0.0
  3
Dim6
  1

  0
LINE
  5
27E
330
27B
100
AcDbEntity
  8
1
  6
Continuous
 62
     7
370
    30
100
AcDbLine
 10
230.5685663924791
 20
357.0000002416959
 30
0.0
 11
230.5685663924788
 21
295.1721444836891
 31
0.0
  0
LINE
  5
27F
330
27B
100
AcDbEntity
  8
1
  6
Continuous
 62
     7
370
    30
100
AcDbLine
 10
358.8685663924788
 20
357.0000002416956
 30
0.0
 11
358.8685663924786
 21
295.1721444836891
 31
0.0
  0
LINE
  5
280
330
27B
100
AcDbEntity
  8
1
  6
Continuous
 62
     7
370
    30
100
AcDbLine
 10
230.5685663924788
 20
303.1721444836891
 30
0.0
 11
358.8685663924786
 21
303.1721444836891
 31
0.0
  0
MTEXT
  5
281
330
27B
100
AcDbEntity
  8
1
  6
Continuous
 62
     7
370
     9
100
AcDbMText
 10
294.7185663924797
 20
303.1721444836891
 30
0.0
 40
14.0
 41
326.56
 46
14.0
 71
     8
 72
     1
  1
φ128.3
  7
ＭＳ ゴシック
 73
     1
 44
1.0
1001
ACAD
1000
ACAD_MTEXT_DEFINED_HEIGHT_BEGIN
1070
    46
1040
14.0
1000
ACAD_MTEXT_DEFINED_HEIGHT_END
  0
INSERT
  5
282
330
27B
100
AcDbEntity
  8
1
  6
Continuous
 62
     7
370
    30
100
AcDbBlockReference
  2
_OPEN
 10
230.5685663924788
 20
303.1721444836891
 30
0.0
 41
16.0
 42
16.0
 43
16.0
 50
179.9999999999998
  0
INSERT
  5
283
330
27B
100
AcDbEntity
  8
1
  6
Continuous
 62
     7
370
    30
100
AcDbBlockReference
  2
_OPEN
 10
358.8685663924786
 20
303.1721444836891
 30
0.0
 41
16.0
 42
16.0
 43
16.0
 50
359.9999999999997
  0
ENDBLK
  5
27D
330
27B
100
AcDbEntity
  8
0
100
AcDbBlockEnd
  0
BLOCK
  5
289
330
288
100
AcDbEntity
  8
0
100
AcDbBlockBegin
  2
Dim7
 70
     0
 10
0.0
 20
0.0
 30
0.0
  3
Dim7
  1

  0
LINE
  5
28B
330
288
100
AcDbEntity
  8
1
  6
Continuous
 62
     7
370
    30
100
AcDbLine
 10
229.0685662825046
 20
664.0000003493901
 30
0.0
 11
229.0685662825047
 21
717.1509928973642
 31
0.0
  0
LINE
  5
28C
330
288
100
AcDbEntity
  8
1
  6
Continuous
 62
     7
370
    30
100
AcDbLine
 10
360.368566525387
 20
664.0000003746045
 30
0.0
 11
360.3685665253871
 21
717.1509928973642
 31
0.0
  0
LINE
  5
28D
330
288
100
AcDbEntity
  8
1
  6
Continuous
 62
     7
370
    30
100
AcDbLine
 10
229.0685662825047
 20
709.1509928973642
 30
0.0
 11
360.3685665253871
 21
709.1509928973642
 31
0.0
  0
MTEXT
  5
28E
330
288
100
AcDbEntity
  8
1
  6
Continuous
 62
     7
370
     9
100
AcDbMText
 10
294.7185663924797
 20
709.1509928973642
 30
0.0
 40
14.0
 41
326.56
 46
14.0
 71
     8
 72
     1
  1
φ131.3
  7
ＭＳ ゴシック
 73
     1
 44
1.0
1001
ACAD
1000
ACAD_MTEXT_DEFINED_HEIGHT_BEGIN
1070
    46
1040
14.0
1000
ACAD_MTEXT_DEFINED_HEIGHT_END
  0
INSERT
  5
28F
330
288
100
AcDbEntity
  8
1
  6
Continuous
 62
     7
370
    30
100
AcDbBlockReference
  2
_OPEN
 10
229.0685662825047
 20
709.1509928973642
 30
0.0
 41
16.0
 42
16.0
 43
16.0
 50
179.9999999999998
  0
INSERT
  5
290
330
288
100
AcDbEntity
  8
1
  6
Continuous
 62
     7
370
    30
100
AcDbBlockReference
  2
_OPEN
 10
360.3685665253871
 20
709.1509928973642
 30
0.0
 41
16.0
 42
16.0
 43
16.0
 50
359.9999999999997
  0
ENDBLK
  5
28A
330
288
100
AcDbEntity
  8
0
100
AcDbBlockEnd
  0
BLOCK
  5
293
330
292
100
AcDbEntity
  8
0
100
AcDbBlockBegin
  2
Dim8
 70
     0
 10
0.0
 20
0.0
 30
0.0
  3
Dim8
  1

  0
LINE
  5
295
330
292
100
AcDbEntity
  8
1
  6
Continuous
 62
     7
370
    30
100
AcDbLine
 10
561.0685663924796
 20
664.910761254014
 30
0.0
 11
561.0685663924796
 21
691.8655436429285
 31
0.0
  0
LINE
  5
296
330
292
100
AcDbEntity
  8
1
  6
Continuous
 62
     7
370
    30
100
AcDbLine
 10
678.3685663924797
 20
663.2562371647073
 30
0.0
 11
678.3685663924797
 21
691.8655436429285
 31
0.0
  0
LINE
  5
297
330
292
100
AcDbEntity
  8
1
  6
Continuous
 62
     7
370
    30
100
AcDbLine
 10
561.0685663924796
 20
683.8655436429285
 30
0.0
 11
678.3685663924797
 21
683.8655436429285
 31
0.0
  0
MTEXT
  5
298
330
292
100
AcDbEntity
  8
1
  6
Continuous
 62
     7
370
     9
100
AcDbMText
 10
619.2725865348373
 20
683.8655436429285
 30
0.0
 40
14.0
 41
326.56
 46
14.0
 71
     8
 72
     1
  1
φ117.3
  7
ＭＳ ゴシック
 73
     1
 44
1.0
1001
ACAD
1000
ACAD_MTEXT_DEFINED_HEIGHT_BEGIN
1070
    46
1040
14.0
1000
ACAD_MTEXT_DEFINED_HEIGHT_END
  0
INSERT
  5
299
330
292
100
AcDbEntity
  8
1
  6
Continuous
 62
     7
370
    30
100
AcDbBlockReference
  2
_OPEN
 10
561.0685663924796
 20
683.8655436429285
 30
0.0
 41
16.0
 42
16.0
 43
16.0
 50
179.9999999999998
  0
INSERT
  5
29A
330
292
100
AcDbEntity
  8
1
  6
Continuous
 62
     7
370
    30
100
AcDbBlockReference
  2
_OPEN
 10
678.3685663924797
 20
683.8655436429285
 30
0.0
 41
16.0
 42
16.0
 43
16.0
 50
359.9999999999997
  0
ENDBLK
  5
294
330
292
100
AcDbEntity
  8
0
100
AcDbBlockEnd
  0
BLOCK
  5
29D
330
29C
100
AcDbEntity
  8
0
100
AcDbBlockBegin
  2
Dim9
 70
     0
 10
0.0
 20
0.0
 30
0.0
  3
Dim9
  1

  0
LINE
  5
29F
330
29C
100
AcDbEntity
  8
1
  6
Continuous
 62
     7
370
    30
100
AcDbLine
 10
361.8516873749037
 20
362.0000000901338
 30
0.0
 11
433.1909461155129
 21
362.0000000901338
 31
0.0
  0
LINE
  5
2A0
330
29C
100
AcDbEntity
  8
1
  6
Continuous
 62
     7
370
    30
100
AcDbLine
 10
370.9619894974201
 20
393.0000000919837
 30
0.0
 11
433.1909461155129
 21
393.0000000919837
 31
0.0
  0
LINE
  5
2A1
330
29C
100
AcDbEntity
  8
1
  6
Continuous
 62
     7
370
    30
100
AcDbLine
 10
425.1909461155129
 20
330.0000000901338
 30
0.0
 11
425.1909461155129
 21
425.0000000919837
 31
0.0
  0
MTEXT
  5
2A2
330
29C
100
AcDbEntity
  8
1
  6
Continuous
 62
     7
370
     9
100
AcDbMText
 10
425.1909461155129
 20
377.525985173555
 30
0.0
 40
14.0
 41
93.33333333333331
 46
14.0
 71
     8
 72
     1
  1
31
  7
ＭＳ ゴシック
 11
1.615544574432587E-15
 21
1.0
 31
0.0
 73
     1
 44
1.0
1001
ACAD
1000
ACAD_MTEXT_DEFINED_HEIGHT_BEGIN
1070
    46
1040
14.0
1000
ACAD_MTEXT_DEFINED_HEIGHT_END
  0
INSERT
  5
2A3
330
29C
100
AcDbEntity
  8
1
  6
Continuous
 62
     7
370
    30
100
AcDbBlockReference
  2
_OPEN
 10
425.1909461155129
 20
362.0000000901338
 30
0.0
 41
16.0
 42
16.0
 43
16.0
 50
89.99999999999959
  0
INSERT
  5
2A4
330
29C
100
AcDbEntity
  8
1
  6
Continuous
 62
     7
370
    30
100
AcDbBlockReference
  2
_OPEN
 10
425.1909461155129
 20
393.0000000919837
 30
0.0
 41
16.0
 42
16.0
 43
16.0
 50
269.9999999999998
  0
ENDBLK
  5
29E
330
29C
100
AcDbEntity
  8
0
100
AcDbBlockEnd
  0
BLOCK
  5
2A7
330
2A6
100
AcDbEntity
  8
0
100
AcDbBlockBegin
  2
Dim10
 70
     0
 10
0.0
 20
0.0
 30
0.0
  3
Dim10
  1

  0
LINE
  5
2A9
330
2A6
100
AcDbEntity
  8
1
  6
Continuous
 62
     7
370
    30
100
AcDbLine
 10
355.0089025609781
 20
659.0000002416957
 30
0.0
 11
433.123382739
 21
659.0000002416957
 31
0.0
  0
LINE
  5
2AA
330
2A6
100
AcDbEntity
  8
1
  6
Continuous
 62
     7
370
    30
100
AcDbLine
 10
371.7505617113315
 20
628.0000002416958
 30
0.0
 11
433.123382739
 21
628.0000002416958
 31
0.0
  0
LINE
  5
2AB
330
2A6
100
AcDbEntity
  8
1
  6
Continuous
 62
     7
370
    30
100
AcDbLine
 10
425.123382739
 20
691.0000002416957
 30
0.0
 11
425.123382739
 21
596.0000002416958
 31
0.0
  0
MTEXT
  5
2AC
330
2A6
100
AcDbEntity
  8
1
  6
Continuous
 62
     7
370
     9
100
AcDbMText
 10
425.123382739
 20
643.7409537653649
 30
0.0
 40
14.0
 41
93.33333333333331
 46
14.0
 71
     8
 72
     1
  1
31
  7
ＭＳ ゴシック
 11
1.615544574432587E-15
 21
1.0
 31
0.0
 73
     1
 44
1.0
1001
ACAD
1000
ACAD_MTEXT_DEFINED_HEIGHT_BEGIN
1070
    46
1040
14.0
1000
ACAD_MTEXT_DEFINED_HEIGHT_END
  0
INSERT
  5
2AD
330
2A6
100
AcDbEntity
  8
1
  6
Continuous
 62
     7
370
    30
100
AcDbBlockReference
  2
_OPEN
 10
425.123382739
 20
659.0000002416957
 30
0.0
 41
16.0
 42
16.0
 43
16.0
 50
269.9999999999998
  0
INSERT
  5
2AE
330
2A6
100
AcDbEntity
  8
1
  6
Continuous
 62
     7
370
    30
100
AcDbBlockReference
  2
_OPEN
 10
425.123382739
 20
628.0000002416958
 30
0.0
 41
16.0
 42
16.0
 43
16.0
 50
89.99999999999959
  0
ENDBLK
  5
2A8
330
2A6
100
AcDbEntity
  8
0
100
AcDbBlockEnd
  0
BLOCK
  5
2B1
330
2B0
100
AcDbEntity
  8
0
100
AcDbBlockBegin
  2
Dim11
 70
     0
 10
0.0
 20
0.0
 30
0.0
  3
Dim11
  1

  0
LINE
  5
2B3
330
2B0
100
AcDbEntity
  8
1
  6
Continuous
 62
     7
370
    30
100
AcDbLine
 10
417.1909461155129
 20
393.0000002438668
 30
0.0
 11
417.1233827391604
 21
393.0000002438668
 31
0.0
  0
LINE
  5
2B4
330
2B0
100
AcDbEntity
  8
1
  6
Continuous
 62
     7
370
    30
100
AcDbLine
 10
425.1233827391604
 20
361.0000002438668
 30
0.0
 11
425.1233827391604
 21
660.0000002422944
 31
0.0
  0
MTEXT
  5
2B5
330
2B0
100
AcDbEntity
  8
1
  6
Continuous
 62
     7
370
     9
100
AcDbMText
 10
425.1233827391604
 20
505.5677660849162
 30
0.0
 40
14.0
 41
180.0
 46
14.0
 71
     8
 72
     1
  1
235
  7
ＭＳ ゴシック
 11
1.615544574432587E-15
 21
1.0
 31
0.0
 73
     1
 44
1.0
1001
ACAD
1000
ACAD_MTEXT_DEFINED_HEIGHT_BEGIN
1070
    46
1040
14.0
1000
ACAD_MTEXT_DEFINED_HEIGHT_END
  0
ENDBLK
  5
2B2
330
2B0
100
AcDbEntity
  8
0
100
AcDbBlockEnd
  0
BLOCK
  5
2B8
330
2B7
100
AcDbEntity
  8
0
100
AcDbBlockBegin
  2
Dim12
 70
     0
 10
0.0
 20
0.0
 30
0.0
  3
Dim12
  1

  0
LINE
  5
2BA
330
2B7
100
AcDbEntity
  8
1
  6
Continuous
 62
     7
370
    30
100
AcDbLine
 10
339.6091832601078
 20
362.0000002416959
 30
0.0
 11
458.1144711567001
 21
362.0000002416959
 31
0.0
  0
LINE
  5
2BB
330
2B7
100
AcDbEntity
  8
1
  6
Continuous
 62
     7
370
    30
100
AcDbLine
 10
326.5798060568175
 20
659.0000002416957
 30
0.0
 11
458.1144711567001
 21
659.0000002416957
 31
0.0
  0
LINE
  5
2BC
330
2B7
100
AcDbEntity
  8
1
  6
Continuous
 62
     7
370
    30
100
AcDbLine
 10
450.1144711567001
 20
362.0000002416959
 30
0.0
 11
450.1144711567001
 21
659.0000002416957
 31
0.0
  0
MTEXT
  5
2BD
330
2B7
100
AcDbEntity
  8
1
  6
Continuous
 62
     7
370
     9
100
AcDbMText
 10
450.1144711567001
 20
506.2666811033216
 30
0.0
 40
14.0
 41
180.0
 46
14.0
 71
     8
 72
     1
  1
297
  7
ＭＳ ゴシック
 11
1.615544574432587E-15
 21
1.0
 31
0.0
 73
     1
 44
1.0
1001
ACAD
1000
ACAD_MTEXT_DEFINED_HEIGHT_BEGIN
1070
    46
1040
14.0
1000
ACAD_MTEXT_DEFINED_HEIGHT_END
  0
INSERT
  5
2BE
330
2B7
100
AcDbEntity
  8
1
  6
Continuous
 62
     7
370
    30
100
AcDbBlockReference
  2
_OPEN
 10
450.1144711567001
 20
362.0000002416959
 30
0.0
 41
16.0
 42
16.0
 43
16.0
 50
269.9999999999998
  0
INSERT
  5
2BF
330
2B7
100
AcDbEntity
  8
1
  6
Continuous
 62
     7
370
    30
100
AcDbBlockReference
  2
_OPEN
 10
450.1144711567001
 20
659.0000002416957
 30
0.0
 41
16.0
 42
16.0
 43
16.0
 50
89.99999999999991
  0
ENDBLK
  5
2B9
330
2B7
100
AcDbEntity
  8
0
100
AcDbBlockEnd
  0
BLOCK
  5
2C2
330
2C1
100
AcDbEntity
  8
0
100
AcDbBlockBegin
  2
Dim13
 70
     0
 10
0.0
 20
0.0
 30
0.0
  3
Dim13
  1

  0
LINE
  5
2C4
330
2C1
100
AcDbEntity
  8
1
  6
Continuous
 62
     7
370
    30
100
AcDbLine
 10
400.1340423007343
 20
598.9201512044864
 30
0.0
 11
400.1340423007345
 21
741.8667231203436
 31
0.0
  0
LINE
  5
2C5
330
2C1
100
AcDbEntity
  8
1
  6
Continuous
 62
     7
370
    30
100
AcDbLine
 10
189.2544587400199
 20
600.1609443209078
 30
0.0
 11
189.2544587400201
 21
741.8667231203436
 31
0.0
  0
LINE
  5
2C6
330
2C1
100
AcDbEntity
  8
1
  6
Continuous
 62
     7
370
    30
100
AcDbLine
 10
400.1340423007345
 20
733.8667231203436
 30
0.0
 11
189.2544587400201
 21
733.8667231203436
 31
0.0
  0
MTEXT
  5
2C7
330
2C1
100
AcDbEntity
  8
1
  6
Continuous
 62
     7
370
     9
100
AcDbMText
 10
285.9183240597652
 20
733.8667231203436
 30
0.0
 40
14.0
 41
216.56
 46
14.0
 71
     8
 72
     1
  1
φ211
  7
ＭＳ ゴシック
 73
     1
 44
1.0
1001
ACAD
1000
ACAD_MTEXT_DEFINED_HEIGHT_BEGIN
1070
    46
1040
14.0
1000
ACAD_MTEXT_DEFINED_HEIGHT_END
  0
INSERT
  5
2C8
330
2C1
100
AcDbEntity
  8
1
  6
Continuous
 62
     7
370
    30
100
AcDbBlockReference
  2
_OPEN
 10
400.1340423007345
 20
733.8667231203436
 30
0.0
 41
16.0
 42
16.0
 43
16.0
 50
359.9999999999997
  0
INSERT
  5
2C9
330
2C1
100
AcDbEntity
  8
1
  6
Continuous
 62
     7
370
    30
100
AcDbBlockReference
  2
_OPEN
 10
189.2544587400201
 20
733.8667231203436
 30
0.0
 41
16.0
 42
16.0
 43
16.0
 50
179.9999999999998
  0
ENDBLK
  5
2C3
330
2C1
100
AcDbEntity
  8
0
100
AcDbBlockEnd
  0
ENDSEC
  0
SECTION
  2
ENTITIES
  0
MTEXT
  5
C5
330
1F
100
AcDbEntity
  8
1
  6
Continuous
 62
     7
370
     9
100
AcDbMText
 10
277.0
 20
1089.5
 30
0.0
 40
15.6
 41
66.6409693550205
 46
15.6
 71
     5
 72
     1
  1
{\fＭＳ ゴシック;\W0.714286;\T1.333333;本　体}
 73
     1
 44
1.0
1001
ACAD
1000
ACAD_MTEXT_DEFINED_HEIGHT_BEGIN
1070
    46
1040
15.6
1000
ACAD_MTEXT_DEFINED_HEIGHT_END
  0
MTEXT
  5
C6
330
1F
100
AcDbEntity
  8
1
  6
Continuous
 62
     7
370
     9
100
AcDbMText
 10
381.8366627497061
 20
1089.5
 30
0.0
 40
15.6
 41
5.872484529810681
 46
15.6
 71
     5
 72
     1
  1
{\fＭＳ ゴシック;\W0.714286;\T1.333333;１}
 11
0.9999997575784659
 21
0.0006963066920512079
 31
0.0
 73
     1
 44
1.0
1001
ACAD
1000
ACAD_MTEXT_DEFINED_HEIGHT_BEGIN
1070
    46
1040
15.6
1000
ACAD_MTEXT_DEFINED_HEIGHT_END
  0
MTEXT
  5
C7
330
1F
100
AcDbEntity
  8
1
  6
Continuous
 62
     7
370
     9
100
AcDbMText
 10
179.5
 20
1089.5
 30
0.0
 40
15.6
 41
4.257947004094536
 46
15.6
 71
     5
 72
     1
  1
{\fＭＳ ゴシック;\W0.714286;\T1.333333;1}
 11
0.999648980526157
 21
-0.02649369232506149
 31
0.0
 73
     1
 44
1.0
1001
ACAD
1000
ACAD_MTEXT_DEFINED_HEIGHT_BEGIN
1070
    46
1040
15.6
1000
ACAD_MTEXT_DEFINED_HEIGHT_END
  0
LINE
  5
C8
330
1F
100
AcDbEntity
  8
1
  6
Continuous
 62
     7
370
    50
100
AcDbLine
 10
200.0
 20
1108.0
 30
0.0
 11
200.0
 21
1028.0
 31
0.0
  0
LINE
  5
C9
330
1F
100
AcDbEntity
  8
1
  6
Continuous
 62
     7
370
    50
100
AcDbLine
 10
160.0
 20
1108.0
 30
0.0
 11
160.0
 21
1028.0
 31
0.0
  0
MTEXT
  5
CA
330
1F
100
AcDbEntity
  8
1
  6
Continuous
 62
     7
370
     9
100
AcDbMText
 10
180.0
 20
1128.0
 30
0.0
 40
12.80000019073486
 41
35.70982093212233
 46
12.80000019073486
 71
     5
 72
     1
  1
{\fＭＳ ゴシック;\W0.714286;\T1.458267;数量}
 73
     1
 44
1.0
1001
ACAD
1000
ACAD_MTEXT_DEFINED_HEIGHT_BEGIN
1070
    46
1040
12.80000019073486
1000
ACAD_MTEXT_DEFINED_HEIGHT_END
  0
LINE
  5
CB
330
1F
100
AcDbEntity
  8
1
  6
Continuous
 62
     7
370
    50
100
AcDbLine
 10
200.0
 20
1148.0
 30
0.0
 11
200.0
 21
1068.0
 31
0.0
  0
LINE
  5
CC
330
1F
100
AcDbEntity
  8
1
  6
Continuous
 62
     7
370
    50
100
AcDbLine
 10
160.0
 20
1148.0
 30
0.0
 11
160.0
 21
1068.0
 31
0.0
  0
LINE
  5
CD
330
1F
100
AcDbEntity
  8
1
  6
Continuous
 62
     7
370
    50
100
AcDbLine
 10
160.0
 20
1108.0
 30
0.0
 11
800.0
 21
1108.0
 31
0.0
  0
LINE
  5
CE
330
1F
100
AcDbEntity
  8
1
  6
Continuous
 62
     7
370
    50
100
AcDbLine
 10
160.0
 20
1068.0
 30
0.0
 11
800.0
 21
1068.0
 31
0.0
  0
MTEXT
  5
CF
330
1F
100
AcDbEntity
  8
1
  6
Continuous
 62
     7
370
     9
100
AcDbMText
 10
179.5
 20
1050.5
 30
0.0
 40
15.6
 41
4.257947004094536
 46
15.6
 71
     5
 72
     1
  1
{\fＭＳ ゴシック;\W0.714286;\T1.333333;1}
 11
0.999648980526157
 21
-0.02649369232506149
 31
0.0
 73
     1
 44
1.0
1001
ACAD
1000
ACAD_MTEXT_DEFINED_HEIGHT_BEGIN
1070
    46
1040
15.6
1000
ACAD_MTEXT_DEFINED_HEIGHT_END
  0
MTEXT
  5
D0
330
1F
100
AcDbEntity
  8
1
  6
Continuous
 62
     7
370
     9
100
AcDbMText
 10
381.8366627497061
 20
1050.5
 30
0.0
 40
15.6
 41
10.76358350477429
 46
15.6
 71
     5
 72
     1
  1
{\fＭＳ ゴシック;\W0.714286;\T1.333333;２}
 11
0.9999999999923987
 21
3.899040105332566E-6
 31
0.0
 73
     1
 44
1.0
1001
ACAD
1000
ACAD_MTEXT_DEFINED_HEIGHT_BEGIN
1070
    46
1040
15.6
1000
ACAD_MTEXT_DEFINED_HEIGHT_END
  0
MTEXT
  5
D1
330
1F
100
AcDbEntity
  8
1
  6
Continuous
 62
     7
370
     9
100
AcDbMText
 10
440.3366627497061
 20
1050.5
 30
0.0
 40
15.6
 41
80.04623791712292
 46
15.6
 71
     5
 72
     1
  1
{\fＭＳ ゴシック;\W0.714286;天然ゴム}
 11
0.9999966605411085
 21
0.002584358069418621
 31
0.0
 73
     1
 44
1.0
1001
ACAD
1000
ACAD_MTEXT_DEFINED_HEIGHT_BEGIN
1070
    46
1040
15.6
1000
ACAD_MTEXT_DEFINED_HEIGHT_END
  0
LINE
  5
D2
330
1F
100
AcDbEntity
  8
1
  6
Continuous
 62
     7
370
    50
100
AcDbLine
 10
646.0
 20
1108.0
 30
0.0
 11
646.0
 21
1028.0
 31
0.0
  0
LINE
  5
D3
330
1F
100
AcDbEntity
  8
1
  6
Continuous
 62
     7
370
    50
100
AcDbLine
 10
160.0
 20
1028.0
 30
0.0
 11
800.0
 21
1028.0
 31
0.0
  0
LINE
  5
D4
330
1F
100
AcDbEntity
  8
1
  6
Continuous
 62
     7
370
    50
100
AcDbLine
 10
360.0
 20
1108.0
 30
0.0
 11
360.0
 21
1028.0
 31
0.0
  0
LINE
  5
D5
330
1F
100
AcDbEntity
  8
1
  6
Continuous
 62
     7
370
    50
100
AcDbLine
 10
400.0
 20
1108.0
 30
0.0
 11
400.0
 21
1028.0
 31
0.0
  0
LINE
  5
D6
330
1F
100
AcDbEntity
  8
1
  6
Continuous
 62
     7
370
    50
100
AcDbLine
 10
480.0
 20
1108.0
 30
0.0
 11
480.0
 21
1028.0
 31
0.0
  0
LINE
  5
D7
330
1F
100
AcDbEntity
  8
1
  6
Continuous
 62
     7
370
    50
100
AcDbLine
 10
708.0
 20
1108.0
 30
0.0
 11
708.0
 21
1028.0
 31
0.0
  0
MTEXT
  5
D8
330
1F
100
AcDbEntity
  8
1
  6
Continuous
 62
     7
370
     9
100
AcDbMText
 10
390.0
 20
131.0
 30
0.0
 40
16.0
 41
42.56490878257492
 46
16.0
 71
     5
 72
     1
  1
{\fＭＳ 明朝;\W0.714286;吉田}
 73
     1
 44
1.0
1001
ACAD
1000
ACAD_MTEXT_DEFINED_HEIGHT_BEGIN
1070
    46
1040
16.0
1000
ACAD_MTEXT_DEFINED_HEIGHT_END
  0
MTEXT
  5
D9
330
1F
100
AcDbEntity
  8
1
  6
Continuous
 62
     7
370
     9
100
AcDbMText
 10
390.0
 20
167.0
 30
0.0
 40
16.0
 41
42.56490878257492
 46
16.0
 71
     5
 72
     1
  1
{\fＭＳ 明朝;\W0.714286;吉田}
 73
     1
 44
1.0
1001
ACAD
1000
ACAD_MTEXT_DEFINED_HEIGHT_BEGIN
1070
    46
1040
16.0
1000
ACAD_MTEXT_DEFINED_HEIGHT_END
  0
MTEXT
  5
DA
330
1F
100
AcDbEntity
  8
1
  6
Continuous
 62
     7
370
     9
100
AcDbMText
 10
390.0
 20
149.0
 30
0.0
 40
16.0
 41
42.56490878257492
 46
16.0
 71
     5
 72
     1
  1
{\fＭＳ 明朝;\W0.714286;吉田}
 73
     1
 44
1.0
1001
ACAD
1000
ACAD_MTEXT_DEFINED_HEIGHT_BEGIN
1070
    46
1040
16.0
1000
ACAD_MTEXT_DEFINED_HEIGHT_END
  0
MTEXT
  5
DB
330
1F
100
AcDbEntity
  8
1
  6
Continuous
 62
     7
370
     9
100
AcDbMText
 10
677.0
 20
1116.0
 30
0.0
 40
10.0
 41
72.14785903008904
 46
10.0
 71
     5
 72
     1
  1
{\fＭＳ ゴシック;\W0.714286;\T1.333333;（ｋｇ／個）}
 73
     1
 44
1.0
1001
ACAD
1000
ACAD_MTEXT_DEFINED_HEIGHT_BEGIN
1070
    46
1040
10.0
1000
ACAD_MTEXT_DEFINED_HEIGHT_END
  0
MTEXT
  5
DC
330
1F
100
AcDbEntity
  8
1
  6
Continuous
 62
     7
370
     9
100
AcDbMText
 10
562.9999999999999
 20
1136.400000190735
 30
0.0
 40
12.80000019073486
 41
206.5577000063598
 46
12.80000019073486
 71
     5
 72
     1
  1
{\fＭＳ ゴシック;\W0.714286;\T1.394000;素材寸法（１個当たリ）}
 73
     1
 44
1.0
1001
ACAD
1000
ACAD_MTEXT_DEFINED_HEIGHT_BEGIN
1070
    46
1040
12.80000019073486
1000
ACAD_MTEXT_DEFINED_HEIGHT_END
  0
MTEXT
  5
DD
330
1F
100
AcDbEntity
  8
1
  6
Continuous
 62
     7
370
     9
100
AcDbMText
 10
380.0
 20
1128.0
 30
0.0
 40
12.80000019073486
 41
35.70961799879531
 46
12.80000019073486
 71
     5
 72
     1
  1
{\fＭＳ ゴシック;\W0.714286;\T1.458267;部番}
 73
     1
 44
1.0
1001
ACAD
1000
ACAD_MTEXT_DEFINED_HEIGHT_BEGIN
1070
    46
1040
12.80000019073486
1000
ACAD_MTEXT_DEFINED_HEIGHT_END
  0
MTEXT
  5
DE
330
1F
100
AcDbEntity
  8
1
  6
Continuous
 62
     7
370
     9
100
AcDbMText
 10
280.0
 20
1128.0
 30
0.0
 40
12.80000019073486
 41
82.46308628953916
 46
12.80000019073486
 71
     5
 72
     1
  1
{\fＭＳ ゴシック;\W0.714286;\T3.159733;品　名}
 73
     1
 44
1.0
1001
ACAD
1000
ACAD_MTEXT_DEFINED_HEIGHT_BEGIN
1070
    46
1040
12.80000019073486
1000
ACAD_MTEXT_DEFINED_HEIGHT_END
  0
MTEXT
  5
DF
330
1F
100
AcDbEntity
  8
1
  6
Continuous
 62
     7
370
     9
100
AcDbMText
 10
440.0
 20
1128.0
 30
0.0
 40
12.80000019073486
 41
50.55248147038948
 46
12.80000019073486
 71
     5
 72
     1
  1
{\fＭＳ ゴシック;\W0.714286;\T3.194400;材質}
 73
     1
 44
1.0
1001
ACAD
1000
ACAD_MTEXT_DEFINED_HEIGHT_BEGIN
1070
    46
1040
12.80000019073486
1000
ACAD_MTEXT_DEFINED_HEIGHT_END
  0
MTEXT
  5
E0
330
1F
100
AcDbEntity
  8
1
  6
Continuous
 62
     7
370
     9
100
AcDbMText
 10
562.9999999999999
 20
1119.599999904632
 30
0.0
 40
12.80000019073486
 41
195.8508529472855
 46
12.80000019073486
 71
     5
 72
     1
  1
{\fＭＳ ゴシック;\W0.714286;\T1.388933;図番・呼び方・その他}
 73
     1
 44
1.0
1001
ACAD
1000
ACAD_MTEXT_DEFINED_HEIGHT_BEGIN
1070
    46
1040
12.80000019073486
1000
ACAD_MTEXT_DEFINED_HEIGHT_END
  0
MTEXT
  5
E1
330
1F
100
AcDbEntity
  8
1
  6
Continuous
 62
     7
370
     9
100
AcDbMText
 10
679.0
 20
1134.0
 30
0.0
 40
10.0
 41
26.92037156465729
 46
10.0
 71
     4
 72
     1
  1
{\fＭＳ ゴシック;\W0.714286;\T1.333333;質量}
 73
     1
 44
1.0
1001
ACAD
1000
ACAD_MTEXT_DEFINED_HEIGHT_BEGIN
1070
    46
1040
10.0
1000
ACAD_MTEXT_DEFINED_HEIGHT_END
  0
MTEXT
  5
E2
330
1F
100
AcDbEntity
  8
1
  6
Continuous
 62
     7
370
     9
100
AcDbMText
 10
675.0
 20
1128.0
 30
0.0
 40
10.0
 41
26.40558679667555
 46
10.0
 71
     6
 72
     1
  1
{\fＭＳ ゴシック;\W0.714286;\T1.333333;製品}
 73
     1
 44
1.0
1001
ACAD
1000
ACAD_MTEXT_DEFINED_HEIGHT_BEGIN
1070
    46
1040
10.0
1000
ACAD_MTEXT_DEFINED_HEIGHT_END
  0
MTEXT
  5
E3
330
1F
100
AcDbEntity
  8
1
  6
Continuous
 62
     7
370
     9
100
AcDbMText
 10
675.0
 20
1140.0
 30
0.0
 40
10.0
 41
27.07479114088588
 46
10.0
 71
     6
 72
     1
  1
{\fＭＳ ゴシック;\W0.714286;\T1.333333;素材}
 73
     1
 44
1.0
1001
ACAD
1000
ACAD_MTEXT_DEFINED_HEIGHT_BEGIN
1070
    46
1040
10.0
1000
ACAD_MTEXT_DEFINED_HEIGHT_END
  0
MTEXT
  5
E4
330
1F
100
AcDbEntity
  8
1
  6
Continuous
 62
     7
370
     9
100
AcDbMText
 10
754.0
 20
1128.0
 30
0.0
 40
12.80000019073486
 41
56.14782973184393
 46
12.80000019073486
 71
     5
 72
     1
  1
{\fＭＳ ゴシック;\W0.714286;\T3.888933;記事}
 73
     1
 44
1.0
1001
ACAD
1000
ACAD_MTEXT_DEFINED_HEIGHT_BEGIN
1070
    46
1040
12.80000019073486
1000
ACAD_MTEXT_DEFINED_HEIGHT_END
  0
LINE
  5
E5
330
1F
100
AcDbEntity
  8
1
  6
Continuous
 62
     7
370
    50
100
AcDbLine
 10
800.0
 20
40.0
 30
0.0
 11
800.0
 21
1148.0
 31
0.0
  0
LINE
  5
E6
330
1F
100
AcDbEntity
  8
1
  6
Continuous
 62
     7
370
    50
100
AcDbLine
 10
646.0
 20
1148.0
 30
0.0
 11
646.0
 21
1068.0
 31
0.0
  0
LINE
  5
E7
330
1F
100
AcDbEntity
  8
1
  6
Continuous
 62
     7
370
    50
100
AcDbLine
 10
360.0
 20
1148.0
 30
0.0
 11
360.0
 21
1068.0
 31
0.0
  0
LINE
  5
E8
330
1F
100
AcDbEntity
  8
1
  6
Continuous
 62
     7
370
    50
100
AcDbLine
 10
400.0
 20
1148.0
 30
0.0
 11
400.0
 21
1068.0
 31
0.0
  0
LINE
  5
E9
330
1F
100
AcDbEntity
  8
1
  6
Continuous
 62
     7
370
    50
100
AcDbLine
 10
480.0
 20
1148.0
 30
0.0
 11
480.0
 21
1068.0
 31
0.0
  0
LINE
  5
EA
330
1F
100
AcDbEntity
  8
1
  6
Continuous
 62
     7
370
    50
100
AcDbLine
 10
708.0
 20
1148.0
 30
0.0
 11
708.0
 21
1068.0
 31
0.0
  0
MTEXT
  5
EB
330
1F
100
AcDbEntity
  8
1
  6
Continuous
 62
     7
370
     9
100
AcDbMText
 10
542.8976617374215
 20
167.0
 30
0.0
 40
8.96
 41
33.19040146932946
 46
8.96
 71
     5
 72
     1
  1
{\fＭＳ 明朝|i1;\W0.714286;TITLE}
 73
     1
 44
1.0
1001
ACAD
1000
ACAD_MTEXT_DEFINED_HEIGHT_BEGIN
1070
    46
1040
8.96
1000
ACAD_MTEXT_DEFINED_HEIGHT_END
  0
MTEXT
  5
EC
330
1F
100
AcDbEntity
  8
1
  6
Continuous
 62
     7
370
     9
100
AcDbMText
 10
500.0
 20
168.0
 30
0.0
 40
10.0
 41
26.97189760395328
 46
10.0
 71
     4
 72
     1
  1
{\fＭＳ ゴシック;\W0.714286;\T1.333333;名称}
 73
     1
 44
1.0
1001
ACAD
1000
ACAD_MTEXT_DEFINED_HEIGHT_BEGIN
1070
    46
1040
10.0
1000
ACAD_MTEXT_DEFINED_HEIGHT_END
  0
MTEXT
  5
ED
330
1F
100
AcDbEntity
  8
1
  6
Continuous
 62
     7
370
     9
100
AcDbMText
 10
548.6055802911914
 20
185.0
 30
0.0
 40
8.96
 41
55.67391473864068
 46
8.96
 71
     5
 72
     1
  1
{\fＭＳ 明朝|i1;\W0.714286;REVISION}
 73
     1
 44
1.0
1001
ACAD
1000
ACAD_MTEXT_DEFINED_HEIGHT_BEGIN
1070
    46
1040
8.96
1000
ACAD_MTEXT_DEFINED_HEIGHT_END
  0
MTEXT
  5
EE
330
1F
100
AcDbEntity
  8
1
  6
Continuous
 62
     7
370
     9
100
AcDbMText
 10
504.9613493991492
 20
185.0
 30
0.0
 40
12.0
 41
31.99547989180408
 46
12.0
 71
     5
 72
     1
  1
{\fＭＳ ゴシック;\W0.714286;\T1.333333;変更}
 73
     1
 44
1.0
1001
ACAD
1000
ACAD_MTEXT_DEFINED_HEIGHT_BEGIN
1070
    46
1040
12.0
1000
ACAD_MTEXT_DEFINED_HEIGHT_END
  0
MTEXT
  5
EF
330
1F
100
AcDbEntity
  8
1
  6
Continuous
 62
     7
370
     9
100
AcDbMText
 10
322.0554035655075
 20
185.0
 30
0.0
 40
8.96
 41
28.89838243000795
 46
8.96
 71
     5
 72
     1
  1
{\fＭＳ 明朝|i1;\W0.714286;MARK}
 73
     1
 44
1.0
1001
ACAD
1000
ACAD_MTEXT_DEFINED_HEIGHT_BEGIN
1070
    46
1040
8.96
1000
ACAD_MTEXT_DEFINED_HEIGHT_END
  0
MTEXT
  5
F0
330
1F
100
AcDbEntity
  8
1
  6
Continuous
 62
     7
370
     9
100
AcDbMText
 10
476.4767199781339
 20
113.0
 30
0.0
 40
8.96
 41
53.01370974416184
 46
8.96
 71
     5
 72
     1
  1
{\fＭＳ 明朝|i1;\W0.714286;UNITS mm}
 73
     1
 44
1.0
1001
ACAD
1000
ACAD_MTEXT_DEFINED_HEIGHT_BEGIN
1070
    46
1040
8.96
1000
ACAD_MTEXT_DEFINED_HEIGHT_END
  0
MTEXT
  5
F1
330
1F
100
AcDbEntity
  8
1
  6
Continuous
 62
     7
370
     9
100
AcDbMText
 10
460.0
 20
113.0
 30
0.0
 40
12.0
 41
32.48974936906306
 46
12.0
 71
     5
 72
     1
  1
{\fＭＳ ゴシック;\W0.714286;\T1.333333;単位　　　　}
 73
     1
 44
1.0
1001
ACAD
1000
ACAD_MTEXT_DEFINED_HEIGHT_BEGIN
1070
    46
1040
12.0
1000
ACAD_MTEXT_DEFINED_HEIGHT_END
  0
MTEXT
  5
F2
330
1F
100
AcDbEntity
  8
1
  6
Continuous
 62
     7
370
     9
100
AcDbMText
 10
317.895852332089
 20
113.0
 30
0.0
 40
8.96
 41
34.1270073190119
 46
8.96
 71
     5
 72
     1
  1
{\fＭＳ 明朝|i1;\W0.714286;SCALE}
 73
     1
 44
1.0
1001
ACAD
1000
ACAD_MTEXT_DEFINED_HEIGHT_BEGIN
1070
    46
1040
8.96
1000
ACAD_MTEXT_DEFINED_HEIGHT_END
  0
MTEXT
  5
F3
330
1F
100
AcDbEntity
  8
1
  6
Continuous
 62
     7
370
     9
100
AcDbMText
 10
276.0
 20
113.0
 30
0.0
 40
12.0
 41
32.55158061621824
 46
12.0
 71
     4
 72
     1
  1
{\fＭＳ ゴシック;\W0.714286;\T1.333333;尺度}
 73
     1
 44
1.0
1001
ACAD
1000
ACAD_MTEXT_DEFINED_HEIGHT_BEGIN
1070
    46
1040
12.0
1000
ACAD_MTEXT_DEFINED_HEIGHT_END
  0
MTEXT
  5
F4
330
1F
100
AcDbEntity
  8
1
  6
Continuous
 62
     7
370
     9
100
AcDbMText
 10
330.4230611051077
 20
131.0
 30
0.0
 40
8.96
 41
75.51654619241067
 46
8.96
 71
     5
 72
     1
  1
{\fＭＳ 明朝|i1;\W0.714286;DESIGNED BY}
 73
     1
 44
1.0
1001
ACAD
1000
ACAD_MTEXT_DEFINED_HEIGHT_BEGIN
1070
    46
1040
8.96
1000
ACAD_MTEXT_DEFINED_HEIGHT_END
  0
MTEXT
  5
F5
330
1F
100
AcDbEntity
  8
1
  6
Continuous
 62
     7
370
     9
100
AcDbMText
 10
276.0
 20
131.0
 30
0.0
 40
12.0
 41
32.42810837189912
 46
12.0
 71
     4
 72
     1
  1
{\fＭＳ ゴシック;\W0.714286;\T1.333333;設計}
 73
     1
 44
1.0
1001
ACAD
1000
ACAD_MTEXT_DEFINED_HEIGHT_BEGIN
1070
    46
1040
12.0
1000
ACAD_MTEXT_DEFINED_HEIGHT_END
  0
MTEXT
  5
F6
330
1F
100
AcDbEntity
  8
1
  6
Continuous
 62
     7
370
     9
100
AcDbMText
 10
330.4230611051077
 20
149.0
 30
0.0
 40
8.96
 41
68.08124268516976
 46
8.96
 71
     5
 72
     1
  1
{\fＭＳ 明朝|i1;\W0.714286;CHECKED BY}
 73
     1
 44
1.0
1001
ACAD
1000
ACAD_MTEXT_DEFINED_HEIGHT_BEGIN
1070
    46
1040
8.96
1000
ACAD_MTEXT_DEFINED_HEIGHT_END
  0
MTEXT
  5
F7
330
1F
100
AcDbEntity
  8
1
  6
Continuous
 62
     7
370
     9
100
AcDbMText
 10
276.0
 20
149.0
 30
0.0
 40
12.0
 41
32.55158061621824
 46
12.0
 71
     4
 72
     1
  1
{\fＭＳ ゴシック;\W0.714286;\T1.333333;調査}
 73
     1
 44
1.0
1001
ACAD
1000
ACAD_MTEXT_DEFINED_HEIGHT_BEGIN
1070
    46
1040
12.0
1000
ACAD_MTEXT_DEFINED_HEIGHT_END
  0
MTEXT
  5
F8
330
1F
100
AcDbEntity
  8
1
  6
Continuous
 62
     7
370
     9
100
AcDbMText
 10
330.0184354987443
 20
167.0
 30
0.0
 40
8.96
 41
75.6724103636943
 46
8.96
 71
     5
 72
     1
  1
{\fＭＳ 明朝|i1;\W0.714286;APPROVED BY}
 73
     1
 44
1.0
1001
ACAD
1000
ACAD_MTEXT_DEFINED_HEIGHT_BEGIN
1070
    46
1040
8.96
1000
ACAD_MTEXT_DEFINED_HEIGHT_END
  0
MTEXT
  5
F9
330
1F
100
AcDbEntity
  8
1
  6
Continuous
 62
     7
370
     9
100
AcDbMText
 10
276.0
 20
167.0
 30
0.0
 40
12.0
 41
32.9826870963833
 46
12.0
 71
     4
 72
     1
  1
{\fＭＳ ゴシック;\W0.714286;\T1.333333;承認}
 73
     1
 44
1.0
1001
ACAD
1000
ACAD_MTEXT_DEFINED_HEIGHT_BEGIN
1070
    46
1040
12.0
1000
ACAD_MTEXT_DEFINED_HEIGHT_END
  0
MTEXT
  5
FA
330
1F
100
AcDbEntity
  8
1
  6
Continuous
 62
     7
370
     9
100
AcDbMText
 10
289.0201112209524
 20
185.1726402587152
 30
0.0
 40
12.0
 41
32.4899396190543
 46
12.0
 71
     5
 72
     1
  1
{\fＭＳ ゴシック;\W0.714286;\T1.333333;記号}
 73
     1
 44
1.0
1001
ACAD
1000
ACAD_MTEXT_DEFINED_HEIGHT_BEGIN
1070
    46
1040
12.0
1000
ACAD_MTEXT_DEFINED_HEIGHT_END
  0
MTEXT
  5
FB
330
1F
100
AcDbEntity
  8
1
  6
Continuous
 62
     7
370
     9
100
AcDbMText
 10
649.0
 20
49.0
 30
0.0
 40
11.03448275862069
 41
360.3354821117659
 46
11.03448275862069
 71
     5
 72
     1
  1
{\fＭＳ Ｐゴシック;\W0.714286;\T1.650741;秘密情報　　目的外使用・複製・開示禁止}
 73
     1
 44
1.0
1001
ACAD
1000
ACAD_MTEXT_DEFINED_HEIGHT_BEGIN
1070
    46
1040
11.03448275862069
1000
ACAD_MTEXT_DEFINED_HEIGHT_END
  0
MTEXT
  5
FC
330
1F
100
AcDbEntity
  8
1
  6
Continuous
 62
     7
370
     9
100
AcDbMText
 10
500.0
 20
96.0
 30
0.0
 40
10.0
 41
231.9483172102371
 46
10.0
 71
     4
 72
     1
  1
{\fＭＳ ゴシック;\W0.714286;\T1.333333;図面番号　ＤＲＡＷＩＮＧ　Ｎｏ．}
 73
     1
 44
1.0
1001
ACAD
1000
ACAD_MTEXT_DEFINED_HEIGHT_BEGIN
1070
    46
1040
10.0
1000
ACAD_MTEXT_DEFINED_HEIGHT_END
  0
LINE
  5
FD
330
1F
100
AcDbEntity
  8
1
  6
Continuous
 62
     7
370
    50
100
AcDbLine
 10
498.0
 20
58.0
 30
0.0
 11
800.0
 21
58.0
 31
0.0
  0
CIRCLE
  5
FE
330
1F
100
AcDbEntity
  8
1
  6
Continuous
 62
     7
370
    50
100
AcDbCircle
 10
375.6243896484375
 20
113.0
 30
0.0
 40
5.0
  0
CIRCLE
  5
FF
330
1F
100
AcDbEntity
  8
1
  6
Continuous
 62
     7
370
    50
100
AcDbCircle
 10
375.6243896484375
 20
113.0
 30
0.0
 40
3.0
  0
LINE
  5
100
330
1F
100
AcDbEntity
  8
1
  6
Continuous
 62
     7
370
    50
100
AcDbLine
 10
392.0
 20
110.0
 30
0.0
 11
409.8420104980469
 21
108.0
 31
0.0
  0
LINE
  5
101
330
1F
100
AcDbEntity
  8
1
  6
Continuous
 62
     7
370
    50
100
AcDbLine
 10
392.0
 20
116.0
 30
0.0
 11
409.8420104980469
 21
118.0
 31
0.0
  0
LINE
  5
102
330
1F
100
AcDbEntity
  8
1
  6
Continuous
 62
     7
370
    50
100
AcDbLine
 10
409.8420104980469
 20
108.0
 30
0.0
 11
409.8420104980469
 21
118.0
 31
0.0
  0
LINE
  5
103
330
1F
100
AcDbEntity
  8
1
  6
Continuous
 62
     7
370
    50
100
AcDbLine
 10
392.0
 20
110.0
 30
0.0
 11
392.0
 21
116.0
 31
0.0
  0
LINE
  5
104
330
1F
100
AcDbEntity
  8
1
  6
Continuous
 62
     7
370
    50
100
AcDbLine
 10
274.0
 20
212.0
 30
0.0
 11
800.0
 21
212.0
 31
0.0
  0
LINE
  5
105
330
1F
100
AcDbEntity
  8
1
  6
Continuous
 62
     7
370
    50
100
AcDbLine
 10
274.0
 20
194.0
 30
0.0
 11
800.0
 21
194.0
 31
0.0
  0
LINE
  5
106
330
1F
100
AcDbEntity
  8
1
  6
Continuous
 62
     7
370
    50
100
AcDbLine
 10
274.0
 20
176.0
 30
0.0
 11
800.0
 21
176.0
 31
0.0
  0
LINE
  5
107
330
1F
100
AcDbEntity
  8
1
  6
Continuous
 62
     7
370
    50
100
AcDbLine
 10
274.0
 20
104.0
 30
0.0
 11
800.0
 21
104.0
 31
0.0
  0
LINE
  5
108
330
1F
100
AcDbEntity
  8
1
  6
Continuous
 62
     7
370
    50
100
AcDbLine
 10
498.0
 20
122.0
 30
0.0
 11
800.0
 21
122.0
 31
0.0
  0
LINE
  5
109
330
1F
100
AcDbEntity
  8
1
  6
Continuous
 62
     7
370
    50
100
AcDbLine
 10
274.0
 20
122.0
 30
0.0
 11
498.0
 21
122.0
 31
0.0
  0
LINE
  5
10A
330
1F
100
AcDbEntity
  8
1
  6
Continuous
 62
     7
370
    50
100
AcDbLine
 10
274.0
 20
212.0
 30
0.0
 11
274.0
 21
40.0
 31
0.0
  0
LINE
  5
10B
330
1F
100
AcDbEntity
  8
1
  6
Continuous
 62
     7
370
    50
100
AcDbLine
 10
422.0
 20
176.0
 30
0.0
 11
422.0
 21
104.0
 31
0.0
  0
LINE
  5
10C
330
1F
100
AcDbEntity
  8
1
  6
Continuous
 62
     7
370
    50
100
AcDbLine
 10
358.0
 20
176.0
 30
0.0
 11
358.0
 21
104.0
 31
0.0
  0
LINE
  5
10D
330
1F
100
AcDbEntity
  8
1
  6
Continuous
 62
     7
370
    50
100
AcDbLine
 10
498.0
 20
176.0
 30
0.0
 11
498.0
 21
40.0
 31
0.0
  0
LINE
  5
10E
330
1F
100
AcDbEntity
  8
1
  6
Continuous
 62
     7
370
    50
100
AcDbLine
 10
413.013214111328
 20
113.0
 30
0.0
 11
366.9867858886719
 21
113.0
 31
0.0
  0
LINE
  5
10F
330
1F
100
AcDbEntity
  8
1
  6
Continuous
 62
     7
370
    50
100
AcDbLine
 10
375.6243896484375
 20
106.3626022338867
 30
0.0
 11
375.6243896484375
 21
119.6373977661133
 31
0.0
  0
LINE
  5
110
330
1F
100
AcDbEntity
  8
1
  6
Continuous
 62
     7
370
    50
100
AcDbLine
 10
338.0
 20
176.0
 30
0.0
 11
338.0
 21
212.0
 31
0.0
  0
LINE
  5
111
330
1F
100
AcDbEntity
  8
1
  6
Continuous
 62
     7
370
    50
100
AcDbLine
 10
274.0
 20
158.0
 30
0.0
 11
498.0
 21
158.0
 31
0.0
  0
LINE
  5
112
330
1F
100
AcDbEntity
  8
1
  6
Continuous
 62
     7
370
    50
100
AcDbLine
 10
274.0
 20
140.0
 30
0.0
 11
498.0
 21
140.0
 31
0.0
  0
LINE
  5
113
330
1F
100
AcDbEntity
  8
1
  6
Continuous
 62
     7
370
    50
100
AcDbLine
 10
60.71856639247969
 20
40.0
 30
0.0
 11
60.71856639247969
 21
1148.0
 31
0.0
  0
MTEXT
  5
114
330
1F
100
AcDbEntity
  8
1
  6
Continuous
 62
     7
370
     9
100
AcDbMText
 10
22.71856639247969
 20
39.99999991257721
 30
0.0
 40
4.0
 41
40.94324879124819
 46
4.0
 71
     4
 72
     1
  1
{\fＭＳ ゴシック;\W0.714286;\T1.333333;2018年8月24日}
 11
-4.371139000186241E-8
 21
0.999999999999999
 31
0.0
 73
     1
 44
1.0
1001
ACAD
1000
ACAD_MTEXT_DEFINED_HEIGHT_BEGIN
1070
    46
1040
4.0
1000
ACAD_MTEXT_DEFINED_HEIGHT_END
  0
LINE
  5
115
330
1F
100
AcDbEntity
  8
1
  6
Continuous
 62
     7
370
    50
100
AcDbLine
 10
60.71856639247969
 20
40.0
 30
0.0
 11
800.0
 21
40.0
 31
0.0
  0
LINE
  5
116
330
1F
100
AcDbEntity
  8
1
  6
Continuous
 62
     7
370
    50
100
AcDbLine
 10
800.0
 20
1148.0
 30
0.0
 11
60.71856639247969
 21
1148.0
 31
0.0
  0
MTEXT
  5
117
330
1F
100
AcDbEntity
  8
1
  6
Continuous
 62
     7
370
     9
100
AcDbMText
 10
356.0
 20
113.0
 30
0.0
 40
8.96
 41
23.79629506953185
 46
8.96
 71
     6
 72
     1
  1
{\fＭＳ ゴシック;\W0.714286;\T1.647128;1/4}
 73
     1
 44
1.0
1001
ACAD
1000
ACAD_MTEXT_DEFINED_HEIGHT_BEGIN
1070
    46
1040
8.96
1000
ACAD_MTEXT_DEFINED_HEIGHT_END
  0
LINE
  5
118
330
1F
100
AcDbEntity
  8
1
  6
Continuous
 62
     7
370
     9
100
AcDbLine
 10
294.7185663924797
 20
424.0000000819673
 30
0.0
 11
294.7185663924797
 21
423.0000000819673
 31
0.0
  0
LINE
  5
119
330
1F
100
AcDbEntity
  8
1
  6
Continuous
 62
     7
370
    30
100
AcDbLine
 10
597.7010849738904
 20
496.2545797903446
 30
0.0
 11
591.4506606365093
 21
492.2101875720392
 31
0.0
  0
LINE
  5
11A
330
1F
100
AcDbEntity
  8
1
  6
Continuous
 62
     7
370
    30
100
AcDbLine
 10
591.4506606365093
 20
492.2101875720392
 30
0.0
 11
592.0021686662782
 21
489.4526474231945
 31
0.0
  0
LINE
  5
11B
330
1F
100
AcDbEntity
  8
1
  6
Continuous
 62
     7
370
    30
100
AcDbLine
 10
592.0021686662782
 20
489.4526474231945
 30
0.0
 11
594.7597088151228
 21
484.8567471751203
 31
0.0
  0
LINE
  5
11C
330
1F
100
AcDbEntity
  8
1
  6
Continuous
 62
     7
370
    30
100
AcDbLine
 10
594.7597088151228
 20
484.8567471751203
 30
0.0
 11
589.7961365472025
 21
481.1800269766609
 31
0.0
  0
LINE
  5
11D
330
1F
100
AcDbEntity
  8
1
  6
Continuous
 62
     7
370
    30
100
AcDbLine
 10
589.7961365472025
 20
481.1800269766609
 30
0.0
 11
592.3698406861242
 21
479.7093388972771
 31
0.0
  0
LINE
  5
11E
330
1F
100
AcDbEntity
  8
1
  6
Continuous
 62
     7
370
    30
100
AcDbLine
 10
592.3698406861242
 20
479.7093388972771
 30
0.0
 11
586.1194163487431
 21
473.8265865797421
 31
0.0
  0
LINE
  5
11F
330
1F
100
AcDbEntity
  8
1
  6
Continuous
 62
     7
370
    30
100
AcDbLine
 10
586.1194163487431
 20
473.8265865797421
 30
0.0
 11
592.0021686662782
 21
472.7235705202042
 31
0.0
  0
LINE
  5
120
330
1F
100
AcDbEntity
  8
1
  6
Continuous
 62
     7
370
    30
100
AcDbLine
 10
592.0021686662782
 20
472.7235705202042
 30
0.0
 11
589.9799725571255
 21
467.392326232438
 31
0.0
  0
LINE
  5
121
330
1F
100
AcDbEntity
  8
1
  6
Continuous
 62
     7
370
    30
100
AcDbLine
 10
589.9799725571255
 20
467.392326232438
 30
0.0
 11
594.024364775431
 21
466.1054741629772
 31
0.0
  0
LINE
  5
122
330
1F
100
AcDbEntity
  8
1
  6
Continuous
 62
     7
370
    30
100
AcDbLine
 10
594.024364775431
 20
466.1054741629772
 30
0.0
 11
591.8183326563552
 21
459.8550498255962
 31
0.0
  0
LINE
  5
123
330
1F
100
AcDbEntity
  8
1
  6
Continuous
 62
     7
370
    30
100
AcDbLine
 10
591.8183326563552
 20
459.8550498255962
 30
0.0
 11
594.7597088151228
 21
457.6490177065206
 31
0.0
  0
LINE
  5
124
330
1F
100
AcDbEntity
  8
1
  6
Continuous
 62
     7
370
    30
100
AcDbLine
 10
594.7597088151228
 20
457.6490177065206
 30
0.0
 11
591.0829886166633
 21
451.0309213492936
 31
0.0
  0
LINE
  5
125
330
1F
100
AcDbEntity
  8
1
  6
Continuous
 62
     7
370
    30
100
AcDbLine
 10
591.0829886166633
 20
451.0309213492936
 30
0.0
 11
593.1051847258161
 21
446.9865291309882
 31
0.0
  0
LINE
  5
126
330
1F
100
AcDbEntity
  8
1
  6
Continuous
 62
     7
370
    30
100
AcDbLine
 10
593.1051847258161
 20
446.9865291309882
 30
0.0
 11
591.8183326563552
 21
441.839120853145
 31
0.0
  0
LINE
  5
127
330
1F
100
AcDbEntity
  8
1
  6
Continuous
 62
     7
370
    30
100
AcDbLine
 10
591.8183326563552
 20
441.839120853145
 30
0.0
 11
588.1702884085926
 21
437.0000001940143
 31
0.0
  0
LINE
  5
128
330
1F
100
AcDbEntity
  8
1
  6
Continuous
 62
     7
370
    30
100
AcDbLine
 10
588.1702884085926
 20
437.0000001940143
 30
0.0
 11
589.6123005372796
 21
429.8897802081519
 31
0.0
  0
LINE
  5
129
330
1F
100
AcDbEntity
  8
1
  6
Continuous
 62
     7
370
    30
100
AcDbLine
 10
589.6123005372796
 20
429.8897802081519
 30
0.0
 11
588.5092844777417
 21
425.6615519799235
 31
0.0
  0
LINE
  5
12A
330
1F
100
AcDbEntity
  8
1
  6
Continuous
 62
     7
370
    30
100
AcDbLine
 10
588.5092844777417
 20
425.6615519799235
 30
0.0
 11
592.1860046762012
 21
419.2272916326195
 31
0.0
  0
LINE
  5
12B
330
1F
100
AcDbEntity
  8
1
  6
Continuous
 62
     7
370
    30
100
AcDbLine
 10
592.1860046762012
 20
419.2272916326195
 30
0.0
 11
591.2668246265863
 21
413.7122113349304
 31
0.0
  0
LINE
  5
12C
330
1F
100
AcDbEntity
  8
1
  6
Continuous
 62
     7
370
    30
100
AcDbLine
 10
591.2668246265863
 20
413.7122113349304
 30
0.0
 11
594.9435448250458
 21
413.7122113349304
 31
0.0
  0
LINE
  5
12D
330
1F
100
AcDbEntity
  8
1
  6
Continuous
 62
     7
370
    30
100
AcDbLine
 10
594.9435448250458
 20
413.7122113349304
 30
0.0
 11
598.6202650235052
 21
415.7344074440831
 31
0.0
  0
LINE
  5
12E
330
1F
100
AcDbEntity
  8
1
  6
Continuous
 62
     7
370
    30
100
AcDbLine
 10
597.7010849738904
 20
496.2545797903446
 30
0.0
 11
600.6654406338984
 21
498.4835914106606
 31
0.0
  0
LINE
  5
12F
330
1F
100
AcDbEntity
  8
1
  6
Continuous
 62
     7
370
    30
100
AcDbLine
 10
600.6654406338984
 20
498.4835914106606
 30
0.0
 11
600.5214138784918
 21
505.2862223837323
 31
0.0
  0
LINE
  5
130
330
1F
100
AcDbEntity
  8
1
  6
Continuous
 62
     7
370
    30
100
AcDbLine
 10
600.5214138784918
 20
505.2862223837323
 30
0.0
 11
604.4854014250378
 21
504.3830661266833
 31
0.0
  0
LINE
  5
131
330
1F
100
AcDbEntity
  8
1
  6
Continuous
 62
     7
370
    30
100
AcDbLine
 10
605.492711576129
 20
504.3565579648125
 30
0.0
 11
609.5634220702589
 21
506.5571873906072
 31
0.0
  0
LINE
  5
132
330
1F
100
AcDbEntity
  8
1
  6
Continuous
 62
     7
370
    30
100
AcDbLine
 10
609.5634220702589
 20
506.5571873906072
 30
0.0
 11
616.0271869623655
 21
504.7415230950716
 31
0.0
  0
LINE
  5
133
330
1F
100
AcDbEntity
  8
1
  6
Continuous
 62
     7
370
    30
100
AcDbLine
 10
616.0271869623655
 20
504.7415230950716
 30
0.0
 11
619.7185663924797
 21
506.2666811033215
 31
0.0
  0
LINE
  5
134
330
1F
100
AcDbEntity
  8
1
  6
Continuous
 62
     7
370
    30
100
AcDbLine
 10
602.9028940527506
 20
504.7436251391233
 30
0.0
 11
603.9953166775379
 21
504.4947272005367
 31
0.0
  0
LINE
  5
135
330
1F
100
AcDbEntity
  8
1
  6
Continuous
 62
     7
370
     9
100
AcDbLine
 10
657.8685663924797
 20
635.0000001940143
 30
0.0
 11
658.8685663924797
 21
635.0000001940143
 31
0.0
  0
LINE
  5
136
330
1F
100
AcDbEntity
  8
1
  6
Continuous
 62
     7
370
    30
100
AcDbLine
 10
600.419633545667
 20
362.0000001940144
 30
0.0
 11
655.0196335456671
 21
362.0000001940144
 31
0.0
  0
LINE
  5
137
330
1F
100
AcDbEntity
  8
1
  6
Continuous
 62
     7
370
     9
100
AcDbLine
 10
664.2685663924798
 20
635.0000001940143
 30
0.0
 11
665.2685663924798
 21
635.0000001940143
 31
0.0
  0
LINE
  5
138
330
1F
100
AcDbEntity
  8
1
  6
Continuous
 62
     7
370
    50
100
AcDbLine
 10
604.4854014250378
 20
504.3830661266833
 30
0.0
 11
605.492711576129
 21
504.3565579648125
 31
0.0
  0
MTEXT
  5
139
330
1F
100
AcDbEntity
  8
1
  6
Continuous
 62
     7
370
     9
100
AcDbMText
 10
648.5509651451194
 20
145.5531346869759
 30
0.0
 40
24.0
 41
0.0
 46
24.0
 71
     5
 72
     1
  1
{\fＭＳ ゴシック;\W0.714286;\T1.333333; }
 11
0.9998803329737455
 21
-0.01546996225955076
 31
0.0
 73
     1
 44
1.0
1001
ACAD
1000
ACAD_MTEXT_DEFINED_HEIGHT_BEGIN
1070
    46
1040
24.0
1000
ACAD_MTEXT_DEFINED_HEIGHT_END
  0
LINE
  5
13A
330
1F
100
AcDbEntity
  8
1
  6
Continuous
 62
     7
370
    30
100
AcDbLine
 10
351.8685663924797
 20
659.0000002416958
 30
0.0
 11
351.8685663924797
 21
633.9405755368758
 31
0.0
  0
LINE
  5
13B
330
1F
100
AcDbEntity
  8
1
  6
Continuous
 62
     7
370
    30
100
AcDbLine
 10
198.7455313880892
 20
490.9575611619782
 30
0.0
 11
198.9659170425356
 21
485.9988839369331
 31
0.0
  0
LINE
  5
13C
330
1F
100
AcDbEntity
  8
1
  6
Continuous
 62
     7
370
    30
100
AcDbLine
 10
198.9659170425356
 20
485.9988839369331
 30
0.0
 11
199.3577137615515
 21
477.1834577590752
 31
0.0
  0
LINE
  5
13D
330
1F
100
AcDbEntity
  8
1
  6
Continuous
 62
     7
370
    30
100
AcDbLine
 10
209.4995960528905
 20
501.6484901077338
 30
0.0
 11
211.0873260089289
 21
496.6810007808431
 31
0.0
  0
LINE
  5
13E
330
1F
100
AcDbEntity
  8
1
  6
Continuous
 62
     7
370
    50
100
AcDbLine
 10
211.0873260089289
 20
496.6810007808431
 30
0.0
 11
205.8110646688303
 21
495.129934654407
 31
0.0
  0
LINE
  5
13F
330
1F
100
AcDbEntity
  8
1
  6
Continuous
 62
     7
370
    30
100
AcDbLine
 10
205.8860205436011
 20
495.1519694837758
 30
0.0
 11
198.7455313880892
 21
490.9575611619782
 31
0.0
  0
LINE
  5
140
330
1F
100
AcDbEntity
  8
1
  6
DASHDOT
 62
     7
370
    30
100
AcDbLine
 10
294.7185663924797
 20
670.7807668108248
 30
0.0
 11
294.7185663924797
 21
354.638059146579
 31
0.0
  0
LINE
  5
141
330
1F
100
AcDbEntity
  8
1
  6
Continuous
 62
     7
370
    30
100
AcDbLine
 10
676.8685663924797
 20
659.0000002416957
 30
0.0
 11
676.8685663924797
 21
633.9405755368757
 31
0.0
  0
LINE
  5
142
330
1F
100
AcDbEntity
  8
1
  6
Continuous
 62
     7
370
    30
100
AcDbLine
 10
678.3685663924797
 20
659.0000002416957
 30
0.0
 11
678.3685663924797
 21
635.5000002416958
 31
0.0
  0
LINE
  5
143
330
1F
100
AcDbEntity
  8
1
  6
Continuous
 62
     7
370
     9
100
AcDbLine
 10
677.3685663924797
 20
659.0000002416957
 30
0.0
 11
678.3685663924797
 21
659.0000002416957
 31
0.0
  0
LINE
  5
144
330
1F
100
AcDbEntity
  8
1
  6
Continuous
 62
     7
370
    30
100
AcDbLine
 10
678.3685663924797
 20
634.0000002416906
 30
0.0
 11
678.3685663924797
 21
659.0000002416957
 31
0.0
  0
LINE
  5
145
330
1F
100
AcDbEntity
  8
1
  6
Continuous
 62
     7
370
    30
100
AcDbLine
 10
558.0685663924801
 20
653.0000000263067
 30
0.0
 11
619.7185663924797
 21
653.0000000731735
 31
0.0
  0
LINE
  5
146
330
1F
100
AcDbEntity
  8
1
  6
DASHDOT
 62
     7
370
    30
100
AcDbLine
 10
619.7185663924797
 20
670.7807668108247
 30
0.0
 11
619.7185663924797
 21
354.6380591465789
 31
0.0
  0
LINE
  5
147
330
1F
100
AcDbEntity
  8
1
  6
Continuous
 62
     7
370
     9
100
AcDbLine
 10
562.0685771986153
 20
659.0000002416957
 30
0.0
 11
561.0685771986153
 21
659.0000002416957
 31
0.0
  0
LINE
  5
148
330
1F
100
AcDbEntity
  8
1
  6
Continuous
 62
     7
370
    30
100
AcDbLine
 10
219.1202165680602
 20
509.9409784543714
 30
0.0
 11
231.2137225110289
 21
512.2971574258701
 31
0.0
  0
LINE
  5
149
330
1F
100
AcDbEntity
  8
1
  6
Continuous
 62
     7
370
    30
100
AcDbLine
 10
231.2137225110289
 20
512.2971574258701
 30
0.0
 11
241.3691511682481
 21
508.7045287229037
 31
0.0
  0
LINE
  5
14A
330
1F
100
AcDbEntity
  8
1
  6
Continuous
 62
     7
370
    30
100
AcDbLine
 10
241.3691511682481
 20
508.7045287229037
 30
0.0
 11
244.826083204554
 21
511.4216708343263
 31
0.0
  0
LINE
  5
14B
330
1F
100
AcDbEntity
  8
1
  6
Continuous
 62
     7
370
    30
100
AcDbLine
 10
244.826083204554
 20
511.4216708343263
 30
0.0
 11
250.6180572854468
 21
508.6493295313226
 31
0.0
  0
LINE
  5
14C
330
1F
100
AcDbEntity
  8
1
  6
Continuous
 62
     7
370
    30
100
AcDbLine
 10
250.6180572854468
 20
508.6493295313226
 30
0.0
 11
256.6895376954359
 21
510.8749617507527
 31
0.0
  0
LINE
  5
14D
330
1F
100
AcDbEntity
  8
1
  6
Continuous
 62
     7
370
    30
100
AcDbLine
 10
219.1202165680602
 20
509.9409784543714
 30
0.0
 11
209.4995960528905
 21
501.6484901077338
 31
0.0
  0
LINE
  5
14E
330
1F
100
AcDbEntity
  8
1
  6
Continuous
 62
     7
370
    30
100
AcDbLine
 10
256.6895376954359
 20
510.8749617507527
 30
0.0
 11
266.1580242145325
 21
505.6072331656035
 31
0.0
  0
LINE
  5
14F
330
1F
100
AcDbEntity
  8
1
  6
Continuous
 62
     7
370
    30
100
AcDbLine
 10
266.1580242145325
 20
505.6072331656035
 30
0.0
 11
269.570497195103
 21
509.8291829340866
 31
0.0
  0
LINE
  5
150
330
1F
100
AcDbEntity
  8
1
  6
Continuous
 62
     7
370
    30
100
AcDbLine
 10
269.570497195103
 20
509.8291829340866
 30
0.0
 11
273.4542199650663
 21
507.6026307063365
 31
0.0
  0
LINE
  5
151
330
1F
100
AcDbEntity
  8
1
  6
Continuous
 62
     7
370
    30
100
AcDbLine
 10
273.4542199650663
 20
507.6026307063365
 30
0.0
 11
276.2465252857592
 21
507.4518166675313
 31
0.0
  0
LINE
  5
152
330
1F
100
AcDbEntity
  8
1
  6
Continuous
 62
     7
370
    30
100
AcDbLine
 10
201.6510806921899
 20
439.5673822567006
 30
0.0
 11
198.2960735110955
 21
448.3353386188602
 31
0.0
  0
LINE
  5
153
330
1F
100
AcDbEntity
  8
1
  6
Continuous
 62
     7
370
    30
100
AcDbLine
 10
276.2465252857592
 20
507.4518166675313
 30
0.0
 11
282.4827529441557
 21
506.2666811033215
 31
0.0
  0
LINE
  5
154
330
1F
100
AcDbEntity
  8
1
  6
Continuous
 62
     7
370
    30
100
AcDbLine
 10
282.4827529441557
 20
506.2666811033215
 30
0.0
 11
289.8361933410747
 21
507.7858616056178
 31
0.0
  0
LINE
  5
155
330
1F
100
AcDbEntity
  8
1
  6
Continuous
 62
     7
370
    30
100
AcDbLine
 10
289.8361933410747
 20
507.7858616056178
 30
0.0
 11
294.7185663924797
 21
506.2666811033215
 31
0.0
  0
CIRCLE
  5
156
330
1F
100
AcDbEntity
  8
1
  6
Continuous
 62
     7
370
    30
100
AcDbCircle
 10
128.7008422341412
 20
627.2856512503406
 30
0.0
 40
14.37964488436883
  0
INSERT
  5
157
330
1F
100
AcDbEntity
  8
1
  6
Continuous
 62
     7
370
    30
100
AcDbBlockReference
  2
_DOT
 10
219.5962593904279
 20
563.467789910741
 30
0.0
 41
2.4
 42
2.4
 43
2.4
 50
324.9272272239987
  0
POLYLINE
  5
158
330
1F
100
AcDbEntity
  8
1
  6
Continuous
 62
     7
370
    30
100
AcDb2dPolyline
 66
     1
 10
0.0
 20
0.0
 30
0.0
  0
VERTEX
  5
159
330
158
100
AcDbEntity
  8
1
  6
Continuous
 62
     7
370
    30
100
AcDbVertex
100
AcDb2dVertex
 10
219.5962593904279
 20
563.467789910741
 30
0.0
  0
VERTEX
  5
15A
330
158
100
AcDbEntity
  8
1
  6
Continuous
 62
     7
370
    30
100
AcDbVertex
100
AcDb2dVertex
 10
140.469472473421
 20
619.0228714946131
 30
0.0
  0
SEQEND
  5
15B
330
158
100
AcDbEntity
  8
1
  6
Continuous
 62
     7
370
    30
  0
MTEXT
  5
15C
330
1F
100
AcDbEntity
  8
1
  6
Continuous
 62
     7
370
     9
100
AcDbMText
 10
128.7008422341412
 20
627.2856512503406
 30
0.0
 40
14.0
 41
3.275343085056896
 46
14.0
 71
     5
 72
     1
  1
{\fＭＳ ゴシック;\W0.612245;1}
 73
     1
 44
1.0
1001
ACAD
1000
ACAD_MTEXT_DEFINED_HEIGHT_BEGIN
1070
    46
1040
14.0
1000
ACAD_MTEXT_DEFINED_HEIGHT_END
  0
ARC
  5
15D
330
1F
100
AcDbEntity
  8
1
  6
Continuous
 62
     7
370
    30
100
AcDbCircle
 10
611.7185663924782
 20
458.0000000750981
 30
0.0
 40
8.500001949433454
100
AcDbArc
 50
342.4962930946483
 51
342.504522027806
  0
LINE
  5
15E
330
1F
100
AcDbEntity
  8
1
  6
HIDDEN
 62
     7
370
    30
100
AcDbLine
 10
562.5685771986148
 20
659.0000002416956
 30
0.0
 11
562.5685771986148
 21
633.9999930055371
 31
0.0
  0
LINE
  5
15F
330
1F
100
AcDbEntity
  8
1
  6
HIDDEN
 62
     7
370
    30
100
AcDbLine
 10
236.0685663924796
 20
633.9999930055371
 30
0.0
 11
215.5586209480355
 21
506.8710631481891
 31
0.0
  0
DIMENSION
  5
16A
330
1F
100
AcDbEntity
  8
1
  6
PHANTOM
 62
     7
370
    30
100
AcDbDimension
280
     0
  2
Dim1
 10
692.2185663924798
 20
714.1639668999085
 30
0.0
 11
626.2845690033735
 21
714.1639668999085
 31
0.0
 70
   160
  1
<>
 71
     8
 42
-1.0
 73
     0
 74
     0
 75
     0
  3
Standard
100
AcDbAlignedDimension
 13
547.2185663924797
 23
616.0156446646307
 33
0.0
 14
692.2185663924797
 24
614.544956585247
 34
0.0
100
AcDbRotatedDimension
1001
ACAD
1000
DSTYLE
1002
{
1070
   279
1070
     1
1070
   340
1005
160
1070
   140
1040
14.0
1070
    40
1040
1.0
1070
   147
1040
0.0
1070
    76
1070
     0
1070
    75
1070
     0
1070
   344
1005
7F
1070
   343
1005
7F
1070
   173
1070
     1
1070
   289
1070
     2
1070
   288
1070
     1
1070
    77
1070
     1
1070
   172
1070
     1
1070
   174
1070
     0
1070
    74
1070
     0
1070
    73
1070
     0
1070
   284
1070
     8
1070
    78
1070
     8
1070
    42
1040
8.0
1070
    44
1040
8.0
1070
    43
1040
10.0
1070
   271
1070
     2
1070
    41
1040
16.0
1002
}
  0
DIMENSION
  5
174
330
1F
100
AcDbEntity
  8
1
  6
PHANTOM
 62
     7
370
    30
100
AcDbDimension
280
     0
  2
Dim2
 10
516.1811612477929
 20
653.0000000406872
 30
0.0
 11
516.1811612477929
 21
675.5986189432567
 31
0.0
 70
   160
  1
<>
 71
     8
 42
-1.0
 73
     0
 74
     0
 75
     0
 53
89.99999999999991
  3
Standard
100
AcDbAlignedDimension
 13
578.2258145967935
 23
659.0000002416957
 33
0.0
 14
576.9849215287553
 24
653.000000040687
 34
0.0
 50
-89.99999999999991
100
AcDbRotatedDimension
1001
ACAD
1000
DSTYLE
1002
{
1070
   279
1070
     1
1070
   340
1005
160
1070
   140
1040
14.0
1070
    40
1040
1.0
1070
   147
1040
0.0
1070
    76
1070
     0
1070
    75
1070
     0
1070
   344
1005
7F
1070
   343
1005
7F
1070
   173
1070
     1
1070
   289
1070
     2
1070
   288
1070
     1
1070
    77
1070
     1
1070
   172
1070
     1
1070
   174
1070
     0
1070
    74
1070
     0
1070
    73
1070
     0
1070
   284
1070
     8
1070
    78
1070
     8
1070
    42
1040
8.0
1070
    44
1040
8.0
1070
    43
1040
10.0
1070
   271
1070
     2
1070
    41
1040
16.0
1002
}
  0
MTEXT
  5
175
330
1F
100
AcDbEntity
  8
1
  6
Continuous
 62
     7
370
     9
100
AcDbMText
 10
530.2203284637844
 20
1049.781370458944
 30
0.0
 40
15.6
 41
110.5916159867493
 46
15.6
 71
     5
 72
     1
  1
{\fＭＳ ゴシック;\W0.714286;黒　ｔ＝1.5}
 11
0.9997638556415979
 21
-0.02173092157839484
 31
0.0
 73
     1
 44
1.0
1001
ACAD
1000
ACAD_MTEXT_DEFINED_HEIGHT_BEGIN
1070
    46
1040
15.6
1000
ACAD_MTEXT_DEFINED_HEIGHT_END
  0
DIMENSION
  5
17F
330
1F
100
AcDbEntity
  8
1
  6
PHANTOM
 62
     7
370
    30
100
AcDbDimension
280
     0
  2
Dim3
 10
353.3685663924795
 20
332.7190872376431
 30
0.0
 11
294.7185663924797
 21
332.7190872376431
 31
0.0
 70
   160
  1
φ<>
 71
     8
 42
-1.0
 73
     0
 74
     0
 75
     0
  3
Standard
100
AcDbAlignedDimension
 13
236.0685663924796
 23
363.2061830290862
 33
0.0
 14
353.3685663924797
 24
363.8189697288294
 34
0.0
100
AcDbRotatedDimension
1001
ACAD
1000
DSTYLE
1002
{
1070
   279
1070
     1
1070
   340
1005
160
1070
   140
1040
14.0
1070
    40
1040
1.0
1070
   147
1040
0.0
1070
    76
1070
     0
1070
    75
1070
     0
1070
   344
1005
7F
1070
   343
1005
7F
1070
   173
1070
     1
1070
   289
1070
     2
1070
   288
1070
     1
1070
    77
1070
     1
1070
   172
1070
     1
1070
   174
1070
     0
1070
    74
1070
     0
1070
    73
1070
     0
1070
   284
1070
     8
1070
    78
1070
     8
1070
    42
1040
8.0
1070
    44
1040
8.0
1070
    43
1040
10.0
1070
   271
1070
     2
1070
    41
1040
16.0
1002
}
  0
LINE
  5
180
330
1F
100
AcDbEntity
  8
1
  6
DASHDOT
 62
     7
370
    30
100
AcDbLine
 10
166.9702982108457
 20
874.1492168497023
 30
0.0
 11
421.3533769417484
 21
874.1492168497023
 31
0.0
  0
LINE
  5
181
330
1F
100
AcDbEntity
  8
1
  6
DASHDOT
 62
     7
370
    30
100
AcDbLine
 10
294.7185663924797
 20
953.7267765170816
 30
0.0
 11
294.7185663924797
 21
788.3887133855255
 31
0.0
  0
MTEXT
  5
182
330
1F
100
AcDbEntity
  8
1
  6
Continuous
 62
     7
370
     9
100
AcDbMText
 10
277.0
 20
1050.5
 30
0.0
 40
15.6
 41
149.0859986290357
 46
15.6
 71
     5
 72
     1
  1
{\fＭＳ ゴシック;\W0.714286;\T1.333333;弁体（ベロー）}
 11
0.9999994988642045
 21
0.001001135025851576
 31
0.0
 73
     1
 44
1.0
1001
ACAD
1000
ACAD_MTEXT_DEFINED_HEIGHT_BEGIN
1070
    46
1040
15.6
1000
ACAD_MTEXT_DEFINED_HEIGHT_END
  0
LINE
  5
183
330
1F
100
AcDbEntity
  8
1
  6
Continuous
 62
     7
370
    30
100
AcDbLine
 10
558.5685663924796
 20
368.0000002416957
 30
0.0
 11
558.5685663924796
 21
385.4109081814744
 31
0.0
  0
LINE
  5
184
330
1F
100
AcDbEntity
  8
1
  6
Continuous
 62
     7
370
    30
100
AcDbLine
 10
680.8685663924794
 20
362.0000002416957
 30
0.0
 11
558.5685663924796
 21
362.0000002416957
 31
0.0
  0
LINE
  5
185
330
1F
100
AcDbEntity
  8
1
  6
Continuous
 62
     7
370
    30
100
AcDbLine
 10
676.8685663924794
 20
386.5000002416873
 30
0.0
 11
676.8685663924794
 21
362.0000002416957
 31
0.0
  0
LINE
  5
186
330
1F
100
AcDbEntity
  8
1
  6
Continuous
 62
     7
370
    30
100
AcDbLine
 10
680.8744797429772
 20
386.7771979847528
 30
0.0
 11
680.8685663924794
 21
368.0000002416957
 31
0.0
  0
LINE
  5
187
330
1F
100
AcDbEntity
  8
1
  6
Continuous
 62
     7
370
    30
100
AcDbLine
 10
557.0685663924796
 20
653.0000002416957
 30
0.0
 11
557.0685663924796
 21
634.5000002416957
 31
0.0
  0
ARC
  5
188
330
1F
100
AcDbEntity
  8
1
  6
Continuous
 62
     7
370
    30
100
AcDbCircle
 10
564.2185663924856
 20
406.6153550732657
 30
0.0
 40
17.00000000000589
100
AcDbArc
 50
181.0262203967558
 51
188.310173011361
  0
LINE
  5
189
330
1F
100
AcDbEntity
  8
1
  6
Continuous
 62
     7
370
    30
100
AcDbLine
 10
547.28548495522
 20
616.8776704851099
 30
0.0
 11
547.2212931300069
 21
406.3108856317413
 31
0.0
  0
LINE
  5
18A
330
1F
100
AcDbEntity
  8
1
  6
Continuous
 62
     7
370
    30
100
AcDbLine
 10
688.2110132153603
 20
406.172268676924
 30
0.0
 11
688.2102523583876
 21
615.8154913389546
 31
0.0
  0
LINE
  5
18B
330
1F
100
AcDbEntity
  8
1
  6
Continuous
 62
     7
370
    30
100
AcDbLine
 10
692.2185663924797
 20
615.3707686836847
 30
0.0
 11
692.1931645977875
 21
405.6863686533687
 31
0.0
  0
LINE
  5
18C
330
1F
100
AcDbEntity
  8
1
  6
Continuous
 62
     7
370
    30
100
AcDbLine
 10
682.3688603736728
 20
634.4381805919725
 30
0.0
 11
682.3685663924794
 21
653.0730730673307
 31
0.0
  0
LINE
  5
18D
330
1F
100
AcDbEntity
  8
1
  6
Continuous
 62
     7
370
    30
100
AcDbLine
 10
557.0685663924796
 20
659.0000002416957
 30
0.0
 11
682.3685663924794
 21
659.0000002416957
 31
0.0
  0
ARC
  5
18E
330
1F
100
AcDbEntity
  8
1
  6
Continuous
 62
     7
370
    30
100
AcDbCircle
 10
675.2185663924797
 20
615.3506303239926
 30
0.0
 40
12.99999999999991
100
AcDbArc
 50
0.0000000000005011
 51
54.48957577807752
  0
ARC
  5
18F
330
1F
100
AcDbEntity
  8
1
  6
Continuous
 62
     7
370
    30
100
AcDbCircle
 10
688.8685663924784
 20
634.4798618820032
 30
0.0
 40
10.49999999999907
100
AcDbArc
 50
184.2840675311145
 51
234.4895757780785
  0
ARC
  5
190
330
1F
100
AcDbEntity
  8
1
  6
Continuous
 62
     7
370
    30
100
AcDbCircle
 10
674.1946845135822
 20
614.9038607641163
 30
0.0
 40
18.04323994272652
100
AcDbArc
 50
3.175259527604226
 51
55.61523388420539
  0
ARC
  5
191
330
1F
100
AcDbEntity
  8
1
  6
Continuous
 62
     7
370
    30
100
AcDbCircle
 10
688.8685663924816
 20
634.5000002416966
 30
0.0
 40
6.500000000002274
100
AcDbArc
 50
180.0000000000077
 51
226.3820023407254
  0
ARC
  5
192
330
1F
100
AcDbEntity
  8
1
  6
Continuous
 62
     7
370
    30
100
AcDbCircle
 10
687.3685663926453
 20
386.5000002416873
 30
0.0
 40
10.50000000016598
100
AcDbArc
 50
173.8769279941076
 51
179.9999999999541
  0
ARC
  5
193
330
1F
100
AcDbEntity
  8
1
  6
Continuous
 62
     7
370
    30
100
AcDbCircle
 10
687.4144752449606
 20
386.4809480169084
 30
0.0
 40
6.546701857379261
100
AcDbArc
 50
119.0115441285217
 51
177.4063778191112
  0
ARC
  5
194
330
1F
100
AcDbEntity
  8
1
  6
Continuous
 62
     7
370
    30
100
AcDbCircle
 10
675.2185663924802
 20
406.615355073266
 30
0.0
 40
16.99999999999928
100
AcDbArc
 50
302.0485927701267
 51
356.8674395324986
  0
ARC
  5
195
330
1F
100
AcDbEntity
  8
1
  6
Continuous
 62
     7
370
    30
100
AcDbCircle
 10
675.2185663924784
 20
406.6153550732677
 30
0.0
 40
13.00000000000173
100
AcDbArc
 50
301.132655878588
 51
348.9262218191594
  0
ARC
  5
196
330
1F
100
AcDbEntity
  8
1
  6
Continuous
 62
     7
370
    30
100
AcDbCircle
 10
687.3685663924784
 20
386.5000002416959
 30
0.0
 40
10.49999999999912
100
AcDbArc
 50
121.1326558785803
 51
173.8769279940573
  0
ARC
  5
197
330
1F
100
AcDbEntity
  8
1
  6
Continuous
 62
     7
370
    30
100
AcDbCircle
 10
687.3396697258327
 20
386.5119555590983
 30
0.0
 40
6.470085570263379
100
AcDbArc
 50
102.6251183144647
 51
174.5093387729091
  0
ARC
  5
198
330
1F
100
AcDbEntity
  8
1
  6
Continuous
 62
     7
370
    30
100
AcDbCircle
 10
680.8685663924794
 20
365.0000002416957
 30
0.0
 40
3.0
100
AcDbArc
 50
269.9999999999998
 51
89.99999999999991
  0
ARC
  5
199
330
1F
100
AcDbEntity
  8
1
  6
Continuous
 62
     7
370
    30
100
AcDbCircle
 10
558.5685663924796
 20
365.0000002416957
 30
0.0
 40
3.0
100
AcDbArc
 50
89.99999999999991
 51
269.9999999999998
  0
ARC
  5
19A
330
1F
100
AcDbEntity
  8
1
  6
Continuous
 62
     7
370
    30
100
AcDbCircle
 10
551.8866365436393
 20
386.3347245367553
 30
0.0
 40
6.745489097397472
100
AcDbArc
 50
352.1284204909608
 51
61.31825054340351
  0
ARC
  5
19B
330
1F
100
AcDbEntity
  8
1
  6
Continuous
 62
     7
370
    30
100
AcDbCircle
 10
564.2185663924834
 20
406.6153550732693
 30
0.0
 40
17.00000000000416
100
AcDbArc
 50
188.3101730113741
 51
237.6581935745615
  0
ARC
  5
19C
330
1F
100
AcDbEntity
  8
1
  6
Continuous
 62
     7
370
    30
100
AcDbCircle
 10
564.2185663924806
 20
615.3707686836841
 30
0.0
 40
17.00000000000097
100
AcDbArc
 50
130.0304476906525
 51
177.7870741299357
  0
ARC
  5
19D
330
1F
100
AcDbEntity
  8
1
  6
Continuous
 62
     7
370
    30
100
AcDbCircle
 10
549.891238391795
 20
634.7160756378423
 30
0.0
 40
7.180579768112826
100
AcDbArc
 50
298.1984722780527
 51
358.2756159236753
  0
ARC
  5
19E
330
1F
100
AcDbEntity
  8
1
  6
Continuous
 62
     7
370
    30
100
AcDbCircle
 10
557.0685663924796
 20
656.0000002416957
 30
0.0
 40
3.0
100
AcDbArc
 50
89.99999999999991
 51
269.9999999999998
  0
ARC
  5
19F
330
1F
100
AcDbEntity
  8
1
  6
Continuous
 62
     7
370
    30
100
AcDbCircle
 10
682.3685663924794
 20
656.0000002416957
 30
0.0
 40
3.0
100
AcDbArc
 50
269.9999999999998
 51
89.99999999999991
  0
LINE
  5
1A0
330
1F
100
AcDbEntity
  8
1
  6
Continuous
 62
     7
370
    30
100
AcDbLine
 10
681.3685771986143
 20
659.0000002416955
 30
0.0
 11
558.0685771986153
 21
659.0000002416957
 31
0.0
  0
LINE
  5
1A1
330
1F
100
AcDbEntity
  8
1
  6
Continuous
 62
     7
370
    30
100
AcDbLine
 10
558.0685663924808
 20
659.0000002416955
 30
0.0
 11
681.3685663924797
 21
659.0000002416957
 31
0.0
  0
LINE
  5
1A2
330
1F
100
AcDbEntity
  8
1
  6
HIDDEN
 62
     7
370
    30
100
AcDbLine
 10
561.0685663924796
 20
659.0000002416957
 30
0.0
 11
561.0685663924796
 21
634.5470644609717
 31
0.0
  0
DIMENSION
  5
1AC
330
1F
100
AcDbEntity
  8
1
  6
PHANTOM
 62
     7
370
    30
100
AcDbDimension
280
     0
  2
Dim4
 10
351.8685663924797
 20
683.8655436429285
 30
0.0
 11
294.7185663924797
 21
683.8655436429285
 31
0.0
 70
   160
  1
φ<>
 71
     8
 42
-1.0
 73
     0
 74
     0
 75
     0
  3
Standard
100
AcDbAlignedDimension
 13
237.5685663924797
 23
664.0874556169705
 33
0.0
 14
351.8685663924797
 24
664.0874556169704
 34
0.0
100
AcDbRotatedDimension
1001
ACAD
1000
DSTYLE
1002
{
1070
   279
1070
     1
1070
   340
1005
160
1070
   140
1040
14.0
1070
    40
1040
1.0
1070
   147
1040
0.0
1070
    76
1070
     0
1070
    75
1070
     0
1070
   344
1005
7F
1070
   343
1005
7F
1070
   173
1070
     1
1070
   289
1070
     2
1070
   288
1070
     1
1070
    77
1070
     1
1070
   172
1070
     1
1070
   174
1070
     0
1070
    74
1070
     0
1070
    73
1070
     0
1070
   284
1070
     8
1070
    78
1070
     8
1070
    42
1040
8.0
1070
    44
1040
8.0
1070
    43
1040
10.0
1070
   271
1070
     2
1070
    41
1040
16.0
1002
}
  0
LINE
  5
1AD
330
1F
100
AcDbEntity
  8
1
  6
HIDDEN
 62
     7
370
    30
100
AcDbLine
 10
236.0685663924796
 20
659.0000002416957
 30
0.0
 11
236.0685663924796
 21
634.5000002416958
 31
0.0
  0
LINE
  5
1AE
330
1F
100
AcDbEntity
  8
1
  6
HIDDEN
 62
     7
370
    30
100
AcDbLine
 10
236.0685663924796
 20
659.0000002416957
 30
0.0
 11
236.0685663924796
 21
633.9999930055371
 31
0.0
  0
ARC
  5
1AF
330
1F
100
AcDbEntity
  8
1
  6
HIDDEN
 62
     7
370
    30
100
AcDbCircle
 10
226.9969490084518
 20
386.4673877134646
 30
0.0
 40
10.57166768732676
100
AcDbArc
 50
0.1767519795269162
 51
84.91489633525926
  0
LINE
  5
1B0
330
1F
100
AcDbEntity
  8
1
  6
HIDDEN
 62
     7
370
    30
100
AcDbLine
 10
237.5685663924792
 20
386.5000002416958
 30
0.0
 11
237.5685663924792
 21
362.0000002416958
 31
0.0
  0
ARC
  5
1B1
330
1F
100
AcDbEntity
  8
1
  6
Continuous
 62
     7
370
    30
100
AcDbCircle
 10
206.2307738736322
 20
424.9587709396446
 30
0.0
 40
17.01223195545963
100
AcDbArc
 50
180.622994697703
 51
236.1322867783832
  0
ARC
  5
1B2
330
1F
100
AcDbEntity
  8
1
  6
Continuous
 62
     7
370
    30
100
AcDbCircle
 10
227.8291326387639
 20
410.5197800484971
 30
0.0
 40
17.56976022066421
100
AcDbArc
 50
235.3356345862078
 51
270.1419155402412
  0
ARC
  5
1B3
330
1F
100
AcDbEntity
  8
1
  6
Continuous
 62
     7
370
    30
100
AcDbCircle
 10
227.0685663924792
 20
386.5000002416958
 30
0.0
 40
6.50000000000001
100
AcDbArc
 50
4.053447190535946
 51
88.7363934403234
  0
ARC
  5
1B4
330
1F
100
AcDbEntity
  8
1
  6
Continuous
 62
     7
370
    30
100
AcDbCircle
 10
233.5685663924792
 20
365.0000002416959
 30
0.0
 40
3.000000000000057
100
AcDbArc
 50
89.99999999999991
 51
269.9999999999998
  0
ARC
  5
1B5
330
1F
100
AcDbEntity
  8
1
  6
Continuous
 62
     7
370
    30
100
AcDbCircle
 10
355.8685663924789
 20
365.0000002416956
 30
0.0
 40
3.0
100
AcDbArc
 50
269.9999999999998
 51
89.99999999998263
  0
ARC
  5
1B6
330
1F
100
AcDbEntity
  8
1
  6
Continuous
 62
     7
370
    30
100
AcDbCircle
 10
361.9515774583142
 20
409.4862936229367
 30
0.0
 40
12.52754239354136
100
AcDbArc
 50
265.4954921707134
 51
305.9532921023504
  0
ARC
  5
1B7
330
1F
100
AcDbEntity
  8
1
  6
Continuous
 62
     7
370
    30
100
AcDbCircle
 10
362.5634555069523
 20
386.3965294918394
 30
0.0
 40
10.72034977535155
100
AcDbArc
 50
98.56048399244416
 51
176.0503921288352
  0
ARC
  5
1B8
330
1F
100
AcDbEntity
  8
1
  6
Continuous
 62
     7
370
    30
100
AcDbCircle
 10
361.604026988161
 20
410.5246433941046
 30
0.0
 40
17.57717796015973
100
AcDbArc
 50
269.8063325094568
 51
303.9955789184107
  0
ARC
  5
1B9
330
1F
100
AcDbEntity
  8
1
  6
Continuous
 62
     7
370
    30
100
AcDbCircle
 10
362.4179896033256
 20
386.4185421000972
 30
0.0
 40
6.587179689821493
100
AcDbArc
 50
97.61912268424972
 51
173.8625032109647
  0
LINE
  5
1BA
330
1F
100
AcDbEntity
  8
1
  6
Continuous
 62
     7
370
    30
100
AcDbLine
 10
369.1131494172541
 20
399.2122838803771
 30
0.0
 11
391.2402439117432
 21
414.7032094034541
 31
0.0
  0
LINE
  5
1BB
330
1F
100
AcDbEntity
  8
1
  6
Continuous
 62
     7
370
    30
100
AcDbLine
 10
355.8685663924794
 20
387.1228090034974
 30
0.0
 11
355.8685663924798
 21
368.0000002416956
 31
0.0
  0
LINE
  5
1BC
330
1F
100
AcDbEntity
  8
1
  6
Continuous
 62
     7
370
    30
100
AcDbLine
 10
351.888642423854
 20
387.1489945497052
 30
0.0
 11
351.8685663924789
 21
362.0000002416956
 31
0.0
  0
LINE
  5
1BD
330
1F
100
AcDbEntity
  8
1
  6
Continuous
 62
     7
370
    30
100
AcDbLine
 10
218.2866307465197
 20
395.7637923850544
 30
0.0
 11
196.7502431869507
 21
410.8330647978175
 31
0.0
  0
LINE
  5
1BE
330
1F
100
AcDbEntity
  8
1
  6
Continuous
 62
     7
370
    30
100
AcDbLine
 10
233.5523069372584
 20
386.959465744193
 30
0.0
 11
233.5685663924792
 21
368.0000002416958
 31
0.0
  0
LINE
  5
1BF
330
1F
100
AcDbEntity
  8
1
  6
Continuous
 62
     7
370
    30
100
AcDbLine
 10
355.8685663924789
 20
362.0000002416956
 30
0.0
 11
233.5685663924792
 21
362.0000002416958
 31
0.0
  0
LINE
  5
1C0
330
1F
100
AcDbEntity
  8
1
  6
Continuous
 62
     7
370
    30
100
AcDbLine
 10
233.0685663924797
 20
362.0000002416958
 30
0.0
 11
356.3685663924797
 21
362.0000000869755
 31
0.0
  0
LINE
  5
1C1
330
1F
100
AcDbEntity
  8
1
  6
Continuous
 62
     7
370
    30
100
AcDbLine
 10
233.0685664752416
 20
368.0000000819672
 30
0.0
 11
294.7185663924797
 21
368.0000000819672
 31
0.0
  0
LINE
  5
1C2
330
1F
100
AcDbEntity
  8
1
  6
Continuous
 62
     7
370
    30
100
AcDbLine
 10
189.234407078538
 20
424.2227292172312
 30
0.0
 11
189.2550552396251
 21
597.1567936228571
 31
0.0
  0
LINE
  5
1C3
330
1F
100
AcDbEntity
  8
1
  6
Continuous
 62
     7
370
    30
100
AcDbLine
 10
371.4319357154554
 20
395.9517440569412
 30
0.0
 11
393.7891516685486
 21
411.6048753294338
 31
0.0
  0
LINE
  5
1C4
330
1F
100
AcDbEntity
  8
1
  6
Continuous
 62
     7
370
    30
100
AcDbLine
 10
294.7185663924797
 20
634.4814064727645
 30
0.0
 11
236.0685663924796
 21
634.5000002416958
 31
0.0
  0
LINE
  5
1C5
330
1F
100
AcDbEntity
  8
1
  6
Continuous
 62
     7
370
    30
100
AcDbLine
 10
390.0908808405729
 20
607.1015820572949
 30
0.0
 11
369.1740989664841
 21
621.7476309931004
 31
0.0
  0
LINE
  5
1C6
330
1F
100
AcDbEntity
  8
1
  6
Continuous
 62
     7
370
    30
100
AcDbLine
 10
370.9678367478609
 20
625.3616556380343
 30
0.0
 11
393.2697629014579
 21
609.7588046803809
 31
0.0
  0
ARC
  5
1C7
330
1F
100
AcDbEntity
  8
1
  6
Continuous
 62
     7
370
    30
100
AcDbCircle
 10
383.1989754584383
 20
596.0379616297628
 30
0.0
 40
17.0200556327578
100
AcDbArc
 50
5.794119546710269
 51
56.27793413478983
  0
ARC
  5
1C8
330
1F
100
AcDbEntity
  8
1
  6
Continuous
 62
     7
370
    30
100
AcDbCircle
 10
383.0753766928933
 20
595.9623970347427
 30
0.0
 40
13.16429798404615
100
AcDbArc
 50
3.245064213075398
 51
57.7971090162295
  0
ARC
  5
1C9
330
1F
100
AcDbEntity
  8
1
  6
Continuous
 62
     7
370
    30
100
AcDbCircle
 10
363.8688936568255
 20
634.5005786160499
 30
0.0
 40
6.500627499991585
100
AcDbArc
 50
180.5506717381753
 51
259.717238409707
  0
ARC
  5
1CA
330
1F
100
AcDbEntity
  8
1
  6
Continuous
 62
     7
370
    30
100
AcDbCircle
 10
361.4821698205192
 20
610.6040282738113
 30
0.0
 40
17.54324492440686
100
AcDbArc
 50
57.26856285560205
 51
85.99159672957644
  0
ARC
  5
1CB
330
1F
100
AcDbEntity
  8
1
  6
Continuous
 62
     7
370
    30
100
AcDbCircle
 10
361.7176189827514
 20
611.0986450407477
 30
0.0
 40
13.00000000000747
100
AcDbArc
 50
55.00007204988347
 51
84.74838560056898
  0
ARC
  5
1CC
330
1F
100
AcDbEntity
  8
1
  6
Continuous
 62
     7
370
    30
100
AcDbCircle
 10
363.8685663924807
 20
634.500000241697
 30
0.0
 40
10.50000000000136
100
AcDbArc
 50
180.0000000000071
 51
264.7483856005752
  0
ARC
  5
1CD
330
1F
100
AcDbEntity
  8
1
  6
Continuous
 62
     7
370
    30
100
AcDbCircle
 10
225.5140837089853
 20
634.5283865309841
 30
0.0
 40
6.558373315783554
100
AcDbArc
 50
271.1206476464054
 51
350.5581041497242
  0
ARC
  5
1CE
330
1F
100
AcDbEntity
  8
1
  6
Continuous
 62
     7
370
    30
100
AcDbCircle
 10
227.7195138022062
 20
611.0986450407487
 30
0.0
 40
17.00000000000629
100
AcDbArc
 50
97.01828345158027
 51
120.8181814056527
  0
ARC
  5
1CF
330
1F
100
AcDbEntity
  8
1
  6
Continuous
 62
     7
370
    30
100
AcDbCircle
 10
206.2185663924774
 20
596.0435598796693
 30
0.0
 40
16.99999999999758
100
AcDbArc
 50
128.0141472404017
 51
176.2453370936496
  0
ARC
  5
1D0
330
1F
100
AcDbEntity
  8
1
  6
Continuous
 62
     7
370
    30
100
AcDbCircle
 10
383.0336331397334
 20
425.012124697514
 30
0.0
 40
17.1882376770155
100
AcDbArc
 50
308.7371660672048
 51
356.1004849523285
  0
ARC
  5
1D1
330
1F
100
AcDbEntity
  8
1
  6
Continuous
 62
     7
370
    30
100
AcDbCircle
 10
383.1243979619626
 20
424.9802644793273
 30
0.0
 40
13.09522113265371
100
AcDbArc
 50
308.2983412447254
 51
357.1539581442269
  0
LINE
  5
1D2
330
1F
100
AcDbEntity
  8
1
  6
Continuous
 62
     7
370
    30
100
AcDbLine
 10
396.2185663924797
 20
596.7075855568289
 30
0.0
 11
396.2034669259078
 21
424.3300556286765
 31
0.0
  0
LINE
  5
1D3
330
1F
100
AcDbEntity
  8
1
  6
Continuous
 62
     7
370
    30
100
AcDbLine
 10
400.1820775453339
 20
423.8432068605347
 30
0.0
 11
400.1320769090435
 21
597.7562075393129
 31
0.0
  0
LINE
  5
1D4
330
1F
100
AcDbEntity
  8
1
  6
Continuous
 62
     7
370
    30
100
AcDbLine
 10
357.3688603736732
 20
634.4381805919729
 30
0.0
 11
357.3685663924794
 21
653.0000002416956
 31
0.0
  0
LINE
  5
1D5
330
1F
100
AcDbEntity
  8
1
  6
Continuous
 62
     7
370
    30
100
AcDbLine
 10
353.3685663924798
 20
659.0000002416956
 30
0.0
 11
353.3685663924794
 21
634.5000002416958
 31
0.0
  0
LINE
  5
1D6
330
1F
100
AcDbEntity
  8
1
  6
Continuous
 62
     7
370
    30
100
AcDbLine
 10
232.0685663924796
 20
659.0000002416957
 30
0.0
 11
357.3685663924794
 21
659.0000002416956
 31
0.0
  0
LINE
  5
1D7
330
1F
100
AcDbEntity
  8
1
  6
Continuous
 62
     7
370
    30
100
AcDbLine
 10
232.0685663924796
 20
653.0000002416958
 30
0.0
 11
231.9836072692538
 21
633.4525029627889
 31
0.0
  0
LINE
  5
1D8
330
1F
100
AcDbEntity
  8
1
  6
Continuous
 62
     7
370
    30
100
AcDbLine
 10
195.7490139001552
 20
609.4371580000559
 30
0.0
 11
219.0101518513925
 21
625.6982003219869
 31
0.0
  0
LINE
  5
1D9
330
1F
100
AcDbEntity
  8
1
  6
Continuous
 62
     7
370
    30
100
AcDbLine
 10
233.0685663924808
 20
659.0000002416956
 30
0.0
 11
356.3685663924797
 21
659.0000002416958
 31
0.0
  0
LINE
  5
1DA
330
1F
100
AcDbEntity
  8
1
  6
Continuous
 62
     7
370
    30
100
AcDbLine
 10
353.3685663924797
 20
634.0000002416907
 30
0.0
 11
353.3685663924797
 21
659.0000002416958
 31
0.0
  0
LINE
  5
1DB
330
1F
100
AcDbEntity
  8
1
  6
Continuous
 62
     7
370
    30
100
AcDbLine
 10
352.3685663924797
 20
659.0000002416958
 30
0.0
 11
353.3685663924797
 21
659.0000002416958
 31
0.0
  0
LINE
  5
1DC
330
1F
100
AcDbEntity
  8
1
  6
Continuous
 62
     7
370
    30
100
AcDbLine
 10
353.3685663924797
 20
659.0000002416958
 30
0.0
 11
353.3685663924797
 21
635.500000241696
 31
0.0
  0
LINE
  5
1DD
330
1F
100
AcDbEntity
  8
1
  6
Continuous
 62
     7
370
    30
100
AcDbLine
 10
546.9185663924795
 20
522.4998682295598
 30
0.0
 11
547.2185663924797
 21
522.4998682295598
 31
0.0
  0
LINE
  5
1DE
330
1F
100
AcDbEntity
  8
1
  6
Continuous
 62
     7
370
    30
100
AcDbLine
 10
546.9185663924795
 20
554.0000002295596
 30
0.0
 11
546.9185663924795
 21
522.4998682295598
 31
0.0
  0
LINE
  5
1DF
330
1F
100
AcDbEntity
  8
1
  6
Continuous
 62
     7
370
    30
100
AcDbLine
 10
547.2185663924797
 20
554.0000002295596
 30
0.0
 11
546.9185663924795
 21
554.0000002295596
 31
0.0
  0
CIRCLE
  5
1E0
330
1F
100
AcDbEntity
  8
1
  6
Continuous
 62
     7
370
    30
100
AcDbCircle
 10
294.7185663924801
 20
538.2499342416954
 30
0.0
 40
14.49006601212091
  0
CIRCLE
  5
1E1
330
1F
100
AcDbEntity
  8
1
  6
Continuous
 62
     7
370
    30
100
AcDbCircle
 10
294.7185663924801
 20
538.2499342416954
 30
0.0
 40
15.75006600000029
  0
LINE
  5
1E2
330
1F
100
AcDbEntity
  8
1
  6
Continuous
 62
     7
370
    30
100
AcDbLine
 10
290.2140638290031
 20
540.0455008947004
 30
0.0
 11
290.2140638290031
 21
550.7555008946995
 31
0.0
  0
LINE
  5
1E3
330
1F
100
AcDbEntity
  8
1
  6
Continuous
 62
     7
370
    30
100
AcDbLine
 10
290.2140638290031
 20
550.7555008946995
 30
0.0
 11
294.7185663924801
 21
550.7555008946995
 31
0.0
  0
LINE
  5
1E4
330
1F
100
AcDbEntity
  8
1
  6
Continuous
 62
     7
370
    30
100
AcDbLine
 10
294.7185663924801
 20
546.8582346593487
 30
0.0
 11
296.5822969945908
 21
547.9342547722711
 31
0.0
  0
LINE
  5
1E5
330
1F
100
AcDbEntity
  8
1
  6
Continuous
 62
     7
370
    30
100
AcDbLine
 10
290.2140638290031
 20
540.0455008947004
 30
0.0
 11
294.7185663924801
 21
540.0455008947004
 31
0.0
  0
LINE
  5
1E6
330
1F
100
AcDbEntity
  8
1
  6
Continuous
 62
     7
370
    30
100
AcDbLine
 10
298.3872952477396
 20
543.6999545897527
 30
0.0
 11
296.605185807763
 21
543.4811426793674
 31
0.0
  0
LINE
  5
1E7
330
1F
100
AcDbEntity
  8
1
  6
Continuous
 62
     7
370
    30
100
AcDbLine
 10
296.605185807763
 20
543.4811426793674
 30
0.0
 11
296.7145949874511
 21
542.5900718175515
 31
0.0
  0
LINE
  5
1E8
330
1F
100
AcDbEntity
  8
1
  6
Continuous
 62
     7
370
    30
100
AcDbLine
 10
296.7145949874511
 20
542.5900718175515
 30
0.0
 11
303.8836355063062
 21
543.4703191747265
 31
0.0
  0
LINE
  5
1E9
330
1F
100
AcDbEntity
  8
1
  6
Continuous
 62
     7
370
    30
100
AcDbLine
 10
287.9618125472649
 20
531.0994996129614
 30
0.0
 11
287.9618125472649
 21
536.4544996129614
 31
0.0
  0
LINE
  5
1EA
330
1F
100
AcDbEntity
  8
1
  6
Continuous
 62
     7
370
    30
100
AcDbLine
 10
287.9618125472649
 20
536.4544996129614
 30
0.0
 11
292.466313508569
 21
536.4544996129614
 31
0.0
  0
LINE
  5
1EB
330
1F
100
AcDbEntity
  8
1
  6
Continuous
 62
     7
370
    30
100
AcDbLine
 10
292.466313508569
 20
536.4544996129614
 30
0.0
 11
294.7185663924801
 21
538.7067508947005
 31
0.0
  0
LINE
  5
1EC
330
1F
100
AcDbEntity
  8
1
  6
Continuous
 62
     7
370
    30
100
AcDbLine
 10
294.7185663924801
 20
538.7067508947005
 30
0.0
 11
296.9708160720448
 21
536.4544996129614
 31
0.0
  0
LINE
  5
1ED
330
1F
100
AcDbEntity
  8
1
  6
Continuous
 62
     7
370
    30
100
AcDbLine
 10
296.9708160720448
 20
536.4544996129614
 30
0.0
 11
301.4753170333491
 21
536.4544996129614
 31
0.0
  0
LINE
  5
1EE
330
1F
100
AcDbEntity
  8
1
  6
Continuous
 62
     7
370
    30
100
AcDbLine
 10
301.4753170333491
 20
536.4544996129614
 30
0.0
 11
301.4753162322626
 21
531.5499505101782
 31
0.0
  0
LINE
  5
1EF
330
1F
100
AcDbEntity
  8
1
  6
Continuous
 62
     7
370
    30
100
AcDbLine
 10
287.9618125472649
 20
531.0994996129614
 30
0.0
 11
292.466313508569
 21
531.0994996129614
 31
0.0
  0
LINE
  5
1F0
330
1F
100
AcDbEntity
  8
1
  6
Continuous
 62
     7
370
    30
100
AcDbLine
 10
292.466313508569
 20
531.0994996129614
 30
0.0
 11
292.466313508569
 21
534.8794996129616
 31
0.0
  0
LINE
  5
1F1
330
1F
100
AcDbEntity
  8
1
  6
Continuous
 62
     7
370
    30
100
AcDbLine
 10
292.466313508569
 20
534.8794996129616
 30
0.0
 11
296.9708160720448
 21
534.8794996129616
 31
0.0
  0
LINE
  5
1F2
330
1F
100
AcDbEntity
  8
1
  6
Continuous
 62
     7
370
    30
100
AcDbLine
 10
296.9708160720448
 20
534.8794996129616
 30
0.0
 11
296.9708192763909
 21
531.0994996129618
 31
0.0
  0
LINE
  5
1F3
330
1F
100
AcDbEntity
  8
1
  6
Continuous
 62
     7
370
    30
100
AcDbLine
 10
294.7185663924798
 20
526.0562747826684
 30
0.0
 11
293.163620790063
 21
526.9540167485814
 31
0.0
  0
LINE
  5
1F4
330
1F
100
AcDbEntity
  8
1
  6
Continuous
 62
     7
370
    30
100
AcDbLine
 10
293.163620790063
 20
526.9540167485814
 30
0.0
 11
292.714746430932
 21
526.1765543614963
 31
0.0
  0
LINE
  5
1F5
330
1F
100
AcDbEntity
  8
1
  6
Continuous
 62
     7
370
    30
100
AcDbLine
 10
292.714746430932
 20
526.1765543614963
 30
0.0
 11
295.0928184262558
 21
524.8035734222428
 31
0.0
  0
ARC
  5
1F6
330
1F
100
AcDbEntity
  8
1
  6
Continuous
 62
     7
370
    30
100
AcDbCircle
 10
290.1991915281554
 20
531.0991106264864
 30
0.0
 40
6.771627759407846
100
AcDbArc
 50
311.8666033601442
 51
0.0032912741414925
  0
ARC
  5
1F7
330
1F
100
AcDbEntity
  8
1
  6
Continuous
 62
     7
370
    30
100
AcDbCircle
 10
294.7187153683545
 20
531.5498095696141
 30
0.0
 40
6.756600865378232
100
AcDbArc
 50
273.1740062441264
 51
0.0000000000038562
  0
ARC
  5
1F8
330
1F
100
AcDbEntity
  8
1
  6
Continuous
 62
     7
370
    30
100
AcDbCircle
 10
292.9267605388476
 20
538.2565939590258
 30
0.0
 40
7.710227899560427
100
AcDbArc
 50
44.90975689406773
 51
76.56200290207471
  0
ARC
  5
1F9
330
1F
100
AcDbEntity
  8
1
  6
Continuous
 62
     7
370
    30
100
AcDbCircle
 10
293.9932006103357
 20
535.319155236316
 30
0.0
 40
12.81648063948409
100
AcDbArc
 50
39.4935099928695
 51
78.71277937572331
  0
ARC
  5
1FA
330
1F
100
AcDbEntity
  8
1
  6
Continuous
 62
     7
370
     9
100
AcDbCircle
 10
560.4861734782158
 20
615.5388982679322
 30
0.0
 40
5.731723440172262
100
AcDbArc
 50
188.5664194706724
 51
256.16038762629
  0
ARC
  5
1FB
330
1F
100
AcDbEntity
  8
1
  6
Continuous
 62
     7
370
     9
100
AcDbCircle
 10
565.5299713560076
 20
627.3017548722273
 30
0.0
 40
18.47745326461093
100
AcDbArc
 50
249.685563112895
 51
265.539182368219
  0
ARC
  5
1FC
330
1F
100
AcDbEntity
  8
1
  6
Continuous
 62
     7
370
     9
100
AcDbCircle
 10
576.2188993076726
 20
597.7820132431156
 30
0.0
 40
16.43814480689465
100
AcDbArc
 50
137.5339753607883
 51
178.4338121568858
  0
ARC
  5
1FD
330
1F
100
AcDbEntity
  8
1
  6
Continuous
 62
     7
370
     9
100
AcDbCircle
 10
557.3411180548579
 20
604.3428698874534
 30
0.0
 40
10.15885396465734
100
AcDbArc
 50
103.8378476469239
 51
181.7301661720292
  0
ARC
  5
1FE
330
1F
100
AcDbEntity
  8
1
  6
Continuous
 62
     7
370
     9
100
AcDbCircle
 10
551.7959121416949
 20
604.542330368386
 30
0.0
 40
4.636728855627726
100
AcDbArc
 50
186.2673484079754
 51
255.9699007179069
  0
ARC
  5
1FF
330
1F
100
AcDbEntity
  8
1
  6
Continuous
 62
     7
370
     9
100
AcDbCircle
 10
560.1806824139782
 20
624.0361134211414
 30
0.0
 40
25.80782169464452
100
AcDbArc
 50
248.3800201374893
 51
269.1257222428321
  0
ARC
  5
200
330
1F
100
AcDbEntity
  8
1
  6
Continuous
 62
     7
370
     9
100
AcDbCircle
 10
612.9645261705633
 20
1242.011458405186
 30
0.0
 40
645.9727220792631
100
AcDbArc
 50
265.2779651607643
 51
270.2414664405551
  0
ARC
  5
201
330
1F
100
AcDbEntity
  8
1
  6
Continuous
 62
     7
370
     9
100
AcDbCircle
 10
331.7332820504877
 20
592.732582863868
 30
0.0
 40
224.162622359567
100
AcDbArc
 50
5.620059177571759
 51
7.437086308371884
  0
ARC
  5
202
330
1F
100
AcDbEntity
  8
1
  6
Continuous
 62
     7
370
     9
100
AcDbCircle
 10
560.1724198996259
 20
611.098928901209
 30
0.0
 40
12.98152761549171
100
AcDbArc
 50
94.29051927119599
 51
179.2485226451888
  0
ARC
  5
203
330
1F
100
AcDbEntity
  8
1
  6
Continuous
 62
     7
370
     9
100
AcDbCircle
 10
561.6696844159566
 20
644.9804500332468
 30
0.0
 40
21.0813911173965
100
AcDbArc
 50
244.6261622144064
 51
263.2757005008294
  0
ARC
  5
204
330
1F
100
AcDbEntity
  8
1
  6
Continuous
 62
     7
370
     9
100
AcDbCircle
 10
560.3826666049509
 20
396.3888053820101
 30
0.0
 40
26.38662558852651
100
AcDbArc
 50
91.29376419877178
 51
112.578431985795
  0
ARC
  5
205
330
1F
100
AcDbEntity
  8
1
  6
Continuous
 62
     7
370
     9
100
AcDbCircle
 10
552.3589516722728
 20
415.6352798292902
 30
0.0
 40
5.534646266341794
100
AcDbArc
 50
112.3807575160408
 51
159.1454585362206
  0
ARC
  5
206
330
1F
100
AcDbEntity
  8
1
  6
Continuous
 62
     7
370
     9
100
AcDbCircle
 10
561.678165365333
 20
417.2538093913147
 30
0.0
 40
14.49553918185499
100
AcDbArc
 50
178.6093761569611
 51
186.9353099389197
  0
ARC
  5
207
330
1F
100
AcDbEntity
  8
1
  6
Continuous
 62
     7
370
     9
100
AcDbCircle
 10
559.0798519811889
 20
417.4864262254667
 30
0.0
 40
11.95673717898009
100
AcDbArc
 50
189.5461712873574
 51
249.1203342400187
  0
ARC
  5
208
330
1F
100
AcDbEntity
  8
1
  6
Continuous
 62
     7
370
     9
100
AcDbCircle
 10
559.7721912553021
 20
405.7858538089326
 30
0.0
 40
4.981964629691085
100
AcDbArc
 50
119.7499917303504
 51
173.904416990204
  0
ARC
  5
209
330
1F
100
AcDbEntity
  8
1
  6
Continuous
 62
     7
370
     9
100
AcDbCircle
 10
564.7494666802146
 20
397.4083302578342
 30
0.0
 40
14.72604230635544
100
AcDbArc
 50
92.55561932898594
 51
120.3888731892873
  0
ARC
  5
20A
330
1F
100
AcDbEntity
  8
1
  6
Continuous
 62
     7
370
     9
100
AcDbCircle
 10
576.2188993079141
 20
423.2179872404462
 30
0.0
 40
16.43814480718716
100
AcDbArc
 50
181.5661878436936
 51
222.4660246390784
  0
ARC
  5
20B
330
1F
100
AcDbEntity
  8
1
  6
Continuous
 62
     7
370
     9
100
AcDbCircle
 10
312.857707316277
 20
430.4200919724926
 30
0.0
 40
243.1584572747255
100
AcDbArc
 50
352.6577249748735
 51
354.3107083166917
  0
ARC
  5
20C
330
1F
100
AcDbEntity
  8
1
  6
Continuous
 62
     7
370
     9
100
AcDbCircle
 10
560.226200596048
 20
410.0273094770144
 30
0.0
 40
13.04063571678094
100
AcDbArc
 50
180.8184970747873
 51
242.7096343856922
  0
ARC
  5
20D
330
1F
100
AcDbEntity
  8
1
  6
Continuous
 62
     7
370
     9
100
AcDbCircle
 10
560.3095807219476
 20
410.1759509410357
 30
0.0
 40
13.21096368183286
100
AcDbArc
 50
242.6838409505857
 51
267.3716463761797
  0
ARC
  5
20E
330
1F
100
AcDbEntity
  8
1
  6
Continuous
 62
     7
370
     9
100
AcDbCircle
 10
561.2341835725139
 20
376.8016915667154
 30
0.0
 40
20.23654999963782
100
AcDbArc
 50
93.63869009683445
 51
112.5747109338723
  0
LINE
  5
20F
330
1F
100
AcDbEntity
  8
1
  6
Continuous
 62
     7
370
     9
100
AcDbLine
 10
559.7868954879574
 20
422.7687042973247
 30
0.0
 11
559.7868954880738
 21
598.2312961871431
 31
0.0
  0
ARC
  5
210
330
1F
100
AcDbEntity
  8
1
  6
Continuous
 62
     7
370
     9
100
AcDbCircle
 10
227.8278858888511
 20
421.6340779146067
 30
0.0
 40
14.00968237269598
100
AcDbArc
 50
175.3546275020697
 51
222.7754972631871
  0
ARC
  5
211
330
1F
100
AcDbEntity
  8
1
  6
Continuous
 62
     7
370
     9
100
AcDbCircle
 10
198.6837563702425
 20
283.8557391068489
 30
0.0
 40
139.7399607656172
100
AcDbArc
 50
72.27738942159174
 51
83.76343997984382
  0
ARC
  5
212
330
1F
100
AcDbEntity
  8
1
  6
Continuous
 62
     7
370
     9
100
AcDbCircle
 10
208.0808140470758
 20
349.5646605165075
 30
0.0
 40
63.26686683319329
100
AcDbArc
 50
63.76612292283396
 51
81.39720914529455
  0
ARC
  5
213
330
1F
100
AcDbEntity
  8
1
  6
Continuous
 62
     7
370
     9
100
AcDbCircle
 10
294.6624773497579
 20
531.2828966249098
 30
0.0
 40
84.0677524100683
100
AcDbArc
 50
89.96177290850316
 51
95.19212116057281
  0
ARC
  5
214
330
1F
100
AcDbEntity
  8
1
  6
Continuous
 62
     7
370
     9
100
AcDbCircle
 10
312.5543561925538
 20
379.1160240407967
 30
0.0
 40
237.2639335449807
100
AcDbArc
 50
96.16970838024098
 51
100.0955374118192
  0
ARC
  5
215
330
1F
100
AcDbEntity
  8
1
  6
Continuous
 62
     7
370
     9
100
AcDbCircle
 10
248.8582645782813
 20
742.3086676586104
 30
0.0
 40
131.4740920826174
100
AcDbArc
 50
273.6320332390731
 51
279.6797064561691
  0
ARC
  5
216
330
1F
100
AcDbEntity
  8
1
  6
Continuous
 62
     7
370
     9
100
AcDbCircle
 10
114.4065102722902
 20
3279.751718836319
 30
0.0
 40
2659.507368241108
100
AcDbArc
 50
273.0631259103823
 51
273.7006692264442
  0
ARC
  5
217
330
1F
100
AcDbEntity
  8
1
  6
Continuous
 62
     7
370
     9
100
AcDbCircle
 10
294.4403934712773
 20
380.1532507446943
 30
0.0
 40
245.7793922283249
100
AcDbArc
 50
89.9351526683424
 51
91.95361859944353
  0
ARC
  5
218
330
1F
100
AcDbEntity
  8
1
  6
Continuous
 62
     7
370
     9
100
AcDbCircle
 10
257.8428321640599
 20
618.1912117398953
 30
0.0
 40
6.000404540533729
100
AcDbArc
 50
102.7320062009787
 51
143.6514452444145
  0
ARC
  5
219
330
1F
100
AcDbEntity
  8
1
  6
Continuous
 62
     7
370
     9
100
AcDbCircle
 10
227.5321485933223
 20
599.4681288742778
 30
0.0
 40
13.72377085682024
100
AcDbArc
 50
136.6991981617286
 51
185.1706770730187
  0
LINE
  5
21A
330
1F
100
AcDbEntity
  8
1
  6
Continuous
 62
     7
370
     9
100
AcDbLine
 10
253.0099485541305
 20
621.7476271631465
 30
0.0
 11
236.0470654225937
 21
614.685139765559
 31
0.0
  0
LINE
  5
21B
330
1F
100
AcDbEntity
  8
1
  6
Continuous
 62
     7
370
     9
100
AcDbLine
 10
236.0470654225937
 20
614.685139765559
 30
0.0
 11
238.8337220807275
 21
608.9505983342249
 31
0.0
  0
LINE
  5
21C
330
1F
100
AcDbEntity
  8
1
  6
Continuous
 62
     7
370
     9
100
AcDbLine
 10
256.5203963056697
 20
624.0440758294246
 30
0.0
 11
257.1869500418643
 21
611.0986456046633
 31
0.0
  0
LINE
  5
21D
330
1F
100
AcDbEntity
  8
1
  6
Continuous
 62
     7
370
     9
100
AcDbLine
 10
236.0470654225937
 20
614.685139765559
 30
0.0
 11
241.2218560085525
 21
604.0361597675959
 31
0.0
  0
LINE
  5
21E
330
1F
100
AcDbEntity
  8
1
  6
Continuous
 62
     7
370
     9
100
AcDbLine
 10
193.2185663924797
 20
596.043559879668
 30
0.0
 11
213.8642245321257
 21
598.231302941548
 31
0.0
  0
LINE
  5
21F
330
1F
100
AcDbEntity
  8
1
  6
Continuous
 62
     7
370
     9
100
AcDbLine
 10
241.2218560085525
 20
604.0361597675959
 30
0.0
 11
257.1869500423886
 21
611.0986456047019
 31
0.0
  0
ARC
  5
220
330
1F
100
AcDbEntity
  8
1
  6
Continuous
 62
     7
370
     9
100
AcDbCircle
 10
207.5472550975637
 20
673.1360213755399
 30
0.0
 40
65.02879938570821
100
AcDbArc
 50
278.8434700359882
 51
295.9931978958393
  0
ARC
  5
221
330
1F
100
AcDbEntity
  8
1
  6
Continuous
 62
     7
370
     9
100
AcDbCircle
 10
197.9693148030155
 20
740.511343406882
 30
0.0
 40
143.1651426504146
100
AcDbArc
 50
276.3744055946516
 51
287.5847650039109
  0
ARC
  5
222
330
1F
100
AcDbEntity
  8
1
  6
Continuous
 62
     7
370
     9
100
AcDbCircle
 10
234.1356786639735
 20
633.9488065801097
 30
0.0
 40
52.56307659400068
100
AcDbArc
 50
351.070243554284
 51
0.600833348621457
  0
LINE
  5
223
330
1F
100
AcDbEntity
  8
1
  6
Continuous
 62
     7
370
     9
100
AcDbLine
 10
286.0616583913175
 20
625.7897839436507
 30
0.0
 11
287.0547128304802
 21
615.0057066249319
 31
0.0
  0
LINE
  5
224
330
1F
100
AcDbEntity
  8
1
  6
Continuous
 62
     7
370
     9
100
AcDbLine
 10
241.2218560085516
 20
604.0361597675956
 30
0.0
 11
241.2218560085525
 21
416.9638407157948
 31
0.0
  0
LINE
  5
225
330
1F
100
AcDbEntity
  8
1
  6
Continuous
 62
     7
370
     9
100
AcDbLine
 10
213.8642245321253
 20
422.7686975418427
 30
0.0
 11
213.8642245321257
 21
598.231302941548
 31
0.0
  0
LINE
  5
226
330
1F
100
AcDbEntity
  8
1
  6
Continuous
 62
     7
370
     9
100
AcDbLine
 10
193.2185663924793
 20
424.9564406037229
 30
0.0
 11
213.8642245321253
 21
422.7686975418427
 31
0.0
  0
LINE
  5
227
330
1F
100
AcDbEntity
  8
1
  6
Continuous
 62
     7
370
     9
100
AcDbLine
 10
198.76208611109
 20
414.3074546513771
 30
0.0
 11
217.5444937508564
 21
412.119717908802
 31
0.0
  0
LINE
  5
228
330
1F
100
AcDbEntity
  8
1
  6
Continuous
 62
     7
370
     9
100
AcDbLine
 10
241.2218560085525
 20
416.9638407157948
 30
0.0
 11
236.0470654225933
 21
406.3148607178317
 31
0.0
  0
LINE
  5
229
330
1F
100
AcDbEntity
  8
1
  6
Continuous
 62
     7
370
     9
100
AcDbLine
 10
256.9505401191955
 20
409.9942853339269
 30
0.0
 11
241.2218560085525
 21
416.9638407157948
 31
0.0
  0
LINE
  5
22A
330
1F
100
AcDbEntity
  8
1
  6
Continuous
 62
     7
370
     9
100
AcDbLine
 10
256.9505401192105
 20
409.9942853339269
 30
0.0
 11
256.7892533087715
 21
396.9974467722666
 31
0.0
  0
LINE
  5
22B
330
1F
100
AcDbEntity
  8
1
  6
Continuous
 62
     7
370
     9
100
AcDbLine
 10
256.7892533087543
 20
396.9974467722666
 30
0.0
 11
227.933972294833
 21
396.9974468325792
 31
0.0
  0
LINE
  5
22C
330
1F
100
AcDbEntity
  8
1
  6
Continuous
 62
     7
370
     9
100
AcDbLine
 10
256.7892533087715
 20
396.9974467722666
 30
0.0
 11
294.7185663924797
 21
395.4928754365147
 31
0.0
  0
LINE
  5
22D
330
1F
100
AcDbEntity
  8
1
  6
Continuous
 62
     7
370
     9
100
AcDbLine
 10
294.7185663924797
 20
406.6444780262252
 30
0.0
 11
256.9505401191955
 21
409.9942853339269
 31
0.0
  0
LINE
  5
22E
330
1F
100
AcDbEntity
  8
1
  6
Continuous
 62
     7
370
     9
100
AcDbLine
 10
236.0470654225933
 20
406.3148607178317
 30
0.0
 11
256.7892533087715
 21
396.9974467722666
 31
0.0
  0
LINE
  5
22F
330
1F
100
AcDbEntity
  8
1
  6
Continuous
 62
     7
370
     9
100
AcDbLine
 10
256.5203963041613
 20
624.0440758290838
 30
0.0
 11
216.8183738294751
 21
624.1660054977531
 31
0.0
  0
ARC
  5
230
330
1F
100
AcDbEntity
  8
1
  6
Continuous
 62
     7
370
     9
100
AcDbCircle
 10
-389.1679335346907
 20
5735.976882774389
 30
0.0
 40
5163.181682663316
100
AcDbArc
 50
276.5388334902279
 51
276.7486836294626
  0
ARC
  5
231
330
1F
100
AcDbEntity
  8
1
  6
HIDDEN
 62
     7
370
     9
100
AcDbCircle
 10
197.5683278077868
 20
614.8470226387527
 30
0.0
 40
8.55361788983025
100
AcDbArc
 50
241.5967000523852
 51
278.2631928271742
  0
ARC
  5
232
330
1F
100
AcDbEntity
  8
1
  6
HIDDEN
 62
     7
370
     9
100
AcDbCircle
 10
193.6875761248948
 20
605.3257797021759
 30
0.0
 40
9.294061273870444
100
AcDbArc
 50
241.5155849411647
 51
267.1074328225641
  0
ARC
  5
233
330
1F
100
AcDbEntity
  8
1
  6
HIDDEN
 62
     7
370
     9
100
AcDbCircle
 10
197.0810105764799
 20
408.047775985777
 30
0.0
 40
6.481480691140955
100
AcDbArc
 50
74.96755554264594
 51
122.2007092083196
  0
ARC
  5
234
330
1F
100
AcDbEntity
  8
1
  6
HIDDEN
 62
     7
370
     9
100
AcDbCircle
 10
192.1928051957389
 20
422.295036302781
 30
0.0
 40
2.852237522684648
100
AcDbArc
 50
68.9222880321551
 51
171.8595835245111
  0
ARC
  5
235
330
1F
100
AcDbEntity
  8
1
  6
Continuous
 62
     7
370
     9
100
AcDbCircle
 10
612.8089799948544
 20
-217.0924588547093
 30
0.0
 40
642.0542419097784
100
AcDbArc
 50
92.11103536725844
 51
94.73699123663093
  0
ARC
  5
236
330
1F
100
AcDbEntity
  8
1
  6
Continuous
 62
     7
370
     9
100
AcDbCircle
 10
613.1054750030886
 20
-135.0667039640495
 30
0.0
 40
549.3771266252417
100
AcDbArc
 50
91.4370643242077
 51
91.83441578018079
  0
ARC
  5
237
330
1F
100
AcDbEntity
  8
1
  6
Continuous
 62
     7
370
     9
100
AcDbCircle
 10
613.1054750030886
 20
-135.0667039640495
 30
0.0
 40
549.3771266252417
100
AcDbArc
 50
92.27533080803572
 51
95.11844301787276
  0
LINE
  5
238
330
1F
100
AcDbEntity
  8
1
  6
Continuous
 62
     7
370
     9
100
AcDbLine
 10
619.7185663924797
 20
396.8640471575342
 30
0.0
 11
559.7037611054276
 21
396.9788852067542
 31
0.0
  0
LINE
  5
239
330
1F
100
AcDbEntity
  8
1
  6
Continuous
 62
     7
370
     9
100
AcDbLine
 10
557.0368954880333
 20
634.5470644609717
 30
0.0
 11
619.7185663924797
 21
634.4414506480061
 31
0.0
  0
LINE
  5
23A
330
1F
100
AcDbEntity
  8
1
  6
Continuous
 62
     7
370
     9
100
AcDbLine
 10
558.8348212073575
 20
623.9925774732727
 30
0.0
 11
619.7185663924797
 21
623.9015194124216
 31
0.0
  0
ARC
  5
23B
330
1F
100
AcDbEntity
  8
1
  6
Continuous
 62
     7
370
     9
100
AcDbCircle
 10
613.2246805031042
 20
1158.378415683489
 30
0.0
 40
551.7898020292624
100
AcDbArc
 50
264.8906452223907
 51
270.2557141299548
  0
LINE
  5
23C
330
1F
100
AcDbEntity
  8
1
  6
HIDDEN
 62
     7
370
     9
100
AcDbLine
 10
615.6873397411362
 20
606.5941091533282
 30
0.0
 11
619.7185663924797
 21
606.8388141951252
 31
0.0
  0
LINE
  5
23D
330
1F
100
AcDbEntity
  8
1
  6
HIDDEN
 62
     7
370
     9
100
AcDbLine
 10
615.6868954880334
 20
596.0444728898331
 30
0.0
 11
619.7185663924797
 21
596.1354731729425
 31
0.0
  0
ARC
  5
23E
330
1F
100
AcDbEntity
  8
1
  6
HIDDEN
 62
     7
370
     9
100
AcDbCircle
 10
552.6276778502629
 20
626.789089806345
 30
0.0
 40
0.8563702049770042
100
AcDbArc
 50
167.7875650333474
 51
270.5455419172085
  0
ARC
  5
23F
330
1F
100
AcDbEntity
  8
1
  6
HIDDEN
 62
     7
370
     9
100
AcDbCircle
 10
553.6767270328663
 20
394.3556799124864
 30
0.0
 40
1.151548191551745
100
AcDbArc
 50
100.5635206590352
 51
184.1183053850549
  0
ARC
  5
240
330
1F
100
AcDbEntity
  8
1
  6
HIDDEN
 62
     7
370
     9
100
AcDbCircle
 10
554.8680099652745
 20
399.0733777666495
 30
0.0
 40
0.8882894264675008
100
AcDbArc
 50
162.173908946294
 51
225.6506300902881
  0
LINE
  5
241
330
1F
100
AcDbEntity
  8
1
  6
Continuous
 62
     7
370
    30
100
AcDbLine
 10
214.3711118767819
 20
434.7124402679677
 30
0.0
 11
217.5576027154468
 21
431.1174249628073
 31
0.0
  0
LINE
  5
242
330
1F
100
AcDbEntity
  8
1
  6
Continuous
 62
     7
370
    30
100
AcDbLine
 10
217.5576027154468
 20
431.1174249628073
 30
0.0
 11
220.7440935541116
 21
430.6271956030128
 31
0.0
  0
LINE
  5
243
330
1F
100
AcDbEntity
  8
1
  6
Continuous
 62
     7
370
    30
100
AcDbLine
 10
220.7440935541116
 20
430.6271956030128
 30
0.0
 11
223.4403550329818
 21
430.7089004963119
 31
0.0
  0
LINE
  5
244
330
1F
100
AcDbEntity
  8
1
  6
Continuous
 62
     7
370
    30
100
AcDbLine
 10
253.8535170568096
 20
421.1286755205734
 30
0.0
 11
256.4345903753842
 21
419.457455814915
 31
0.0
  0
LINE
  5
245
330
1F
100
AcDbEntity
  8
1
  6
Continuous
 62
     7
370
    30
100
AcDbLine
 10
251.4023702578397
 20
420.6384461607793
 30
0.0
 11
253.8535170568096
 21
421.1286755205734
 31
0.0
  0
LINE
  5
246
330
1F
100
AcDbEntity
  8
1
  6
Continuous
 62
     7
370
    30
100
AcDbLine
 10
249.1963381387668
 20
421.4554950937693
 30
0.0
 11
251.4023702578397
 21
420.6384461607793
 31
0.0
  0
LINE
  5
247
330
1F
100
AcDbEntity
  8
1
  6
Continuous
 62
     7
370
    30
100
AcDbLine
 10
246.5817815531989
 20
420.8835608406765
 30
0.0
 11
249.1963381387668
 21
421.4554950937693
 31
0.0
  0
LINE
  5
248
330
1F
100
AcDbEntity
  8
1
  6
Continuous
 62
     7
370
    30
100
AcDbLine
 10
244.375749434126
 20
422.7627733865532
 30
0.0
 11
246.5817815531989
 21
420.8835608406765
 31
0.0
  0
LINE
  5
249
330
1F
100
AcDbEntity
  8
1
  6
Continuous
 62
     7
370
    30
100
AcDbLine
 10
242.0880124217541
 20
421.7823146669653
 30
0.0
 11
244.375749434126
 21
422.7627733865532
 31
0.0
  0
LINE
  5
24A
330
1F
100
AcDbEntity
  8
1
  6
Continuous
 62
     7
370
    30
100
AcDbLine
 10
240.5356194490732
 20
423.5798223195432
 30
0.0
 11
242.0880124217541
 21
421.7823146669653
 31
0.0
  0
LINE
  5
24B
330
1F
100
AcDbEntity
  8
1
  6
Continuous
 62
     7
370
    30
100
AcDbLine
 10
236.7771943573194
 20
422.9261831731513
 30
0.0
 11
240.5356194490732
 21
423.5798223195432
 31
0.0
  0
LINE
  5
24C
330
1F
100
AcDbEntity
  8
1
  6
Continuous
 62
     7
370
    30
100
AcDbLine
 10
232.6102447990706
 20
424.4785761458323
 30
0.0
 11
236.7771943573194
 21
422.9261831731513
 31
0.0
  0
LINE
  5
24D
330
1F
100
AcDbEntity
  8
1
  6
Continuous
 62
     7
370
    30
100
AcDbLine
 10
230.2408028933997
 20
424.6419859324301
 30
0.0
 11
232.6102447990706
 21
424.4785761458323
 31
0.0
  0
LINE
  5
24E
330
1F
100
AcDbEntity
  8
1
  6
Continuous
 62
     7
370
    30
100
AcDbLine
 10
227.2994267346358
 20
427.991886557689
 30
0.0
 11
230.2408028933997
 21
424.6419859324301
 31
0.0
  0
LINE
  5
24F
330
1F
100
AcDbEntity
  8
1
  6
Continuous
 62
     7
370
    30
100
AcDbLine
 10
224.3580505758719
 20
428.318706130885
 30
0.0
 11
227.2994267346358
 21
427.991886557689
 31
0.0
  0
LINE
  5
250
330
1F
100
AcDbEntity
  8
1
  6
Continuous
 62
     7
370
    30
100
AcDbLine
 10
223.4403550329818
 20
430.7089004963119
 30
0.0
 11
224.3580505758719
 21
428.318706130885
 31
0.0
  0
LINE
  5
251
330
1F
100
AcDbEntity
  8
1
  6
Continuous
 62
     7
370
    30
100
AcDbLine
 10
256.4345903753842
 20
419.457455814915
 30
0.0
 11
261.749736878598
 21
420.8554845621193
 31
0.0
  0
LINE
  5
252
330
1F
100
AcDbEntity
  8
1
  6
Continuous
 62
     7
370
    30
100
AcDbLine
 10
261.749736878598
 20
420.8554845621193
 30
0.0
 11
265.0587850572116
 21
418.4656164331206
 31
0.0
  0
LINE
  5
253
330
1F
100
AcDbEntity
  8
1
  6
Continuous
 62
     7
370
    30
100
AcDbLine
 10
265.0587850572116
 20
418.4656164331206
 30
0.0
 11
269.1031772755171
 21
420.3039765323504
 31
0.0
  0
LINE
  5
254
330
1F
100
AcDbEntity
  8
1
  6
Continuous
 62
     7
370
    30
100
AcDbLine
 10
269.1031772755171
 20
420.3039765323504
 30
0.0
 11
276.2873402067335
 21
418.2817804231976
 31
0.0
  0
LINE
  5
255
330
1F
100
AcDbEntity
  8
1
  6
Continuous
 62
     7
370
    30
100
AcDbLine
 10
202.680612581262
 20
439.9092475269752
 30
0.0
 11
206.7087382412421
 21
434.7124402679677
 31
0.0
  0
LINE
  5
256
330
1F
100
AcDbEntity
  8
1
  6
Continuous
 62
     7
370
    50
100
AcDbLine
 10
206.7087382412421
 20
434.7124402679677
 30
0.0
 11
214.3711118767819
 21
434.7124402679677
 31
0.0
  0
LINE
  5
257
330
1F
100
AcDbEntity
  8
1
  6
Continuous
 62
     7
370
    30
100
AcDbLine
 10
276.2873402067335
 20
418.2817804231976
 30
0.0
 11
286.1390469192905
 21
415.9096090909127
 31
0.0
  0
LINE
  5
258
330
1F
100
AcDbEntity
  8
1
  6
Continuous
 62
     7
370
    30
100
AcDbLine
 10
286.1390469192905
 20
415.9096090909127
 30
0.0
 11
294.7185663924797
 21
415.9096090909127
 31
0.0
  0
LINE
  5
259
330
1F
100
AcDbEntity
  8
1
  6
Continuous
 62
     7
370
    30
100
AcDbLine
 10
599.5613045778198
 20
414.0204985712865
 30
0.0
 11
603.9581006826057
 21
412.2600625051134
 31
0.0
  0
LINE
  5
25A
330
1F
100
AcDbEntity
  8
1
  6
Continuous
 62
     7
370
    30
100
AcDbLine
 10
603.9581006826057
 20
412.2600625051134
 30
0.0
 11
606.0595065532175
 21
416.5845443791944
 31
0.0
  0
LINE
  5
25B
330
1F
100
AcDbEntity
  8
1
  6
Continuous
 62
     7
370
    30
100
AcDbLine
 10
606.0595065532175
 20
416.5845443791944
 30
0.0
 11
612.2769203204748
 21
412.9733012495899
 31
0.0
  0
LINE
  5
25C
330
1F
100
AcDbEntity
  8
1
  6
Continuous
 62
     7
370
    30
100
AcDbLine
 10
612.2769203204748
 20
412.9733012495899
 30
0.0
 11
615.1903547946366
 21
411.3540031470534
 31
0.0
  0
LINE
  5
25D
330
1F
100
AcDbEntity
  8
1
  6
Continuous
 62
     7
370
    30
100
AcDbLine
 10
615.1903547946366
 20
411.3540031470534
 30
0.0
 11
617.427180491082
 21
413.8197028100187
 31
0.0
  0
LINE
  5
25E
330
1F
100
AcDbEntity
  8
1
  6
Continuous
 62
     7
370
    30
100
AcDbLine
 10
617.427180491082
 20
413.8197028100187
 30
0.0
 11
619.7185663924797
 21
415.9096090909127
 31
0.0
  0
LINE
  5
25F
330
1F
100
AcDbEntity
  8
1
  6
Continuous
 62
     7
370
    30
100
AcDbLine
 10
598.6202650235052
 20
415.7344074440831
 30
0.0
 11
599.3277150554034
 21
414.1376301319505
 31
0.0
  0
LINE
  5
260
330
1F
100
AcDbEntity
  8
1
  6
Continuous
 62
     7
370
    30
100
AcDbLine
 10
201.6510806921899
 20
439.5673822567006
 30
0.0
 11
202.680612581262
 21
439.9092475269752
 31
0.0
  0
CIRCLE
  5
261
330
1F
100
AcDbEntity
  8
1
  6
Continuous
 62
     7
370
    30
100
AcDbCircle
 10
129.4264564232396
 20
508.6069878767518
 30
0.0
 40
14.37964488436882
  0
INSERT
  5
262
330
1F
100
AcDbEntity
  8
1
  6
Continuous
 62
     7
370
    30
100
AcDbBlockReference
  2
_DOT
 10
244.036718859589
 20
470.7491735406771
 30
0.0
 41
2.4
 42
2.4
 43
2.4
 50
341.7206891263883
  0
POLYLINE
  5
263
330
1F
100
AcDbEntity
  8
1
  6
Continuous
 62
     7
370
    30
100
AcDb2dPolyline
 66
     1
 10
0.0
 20
0.0
 30
0.0
  0
VERTEX
  5
264
330
263
100
AcDbEntity
  8
1
  6
Continuous
 62
     7
370
    30
100
AcDbVertex
100
AcDb2dVertex
 10
244.036718859589
 20
470.7491735406771
 30
0.0
  0
VERTEX
  5
265
330
263
100
AcDbEntity
  8
1
  6
Continuous
 62
     7
370
    30
100
AcDbVertex
100
AcDb2dVertex
 10
143.080487118511
 20
504.0968179494495
 30
0.0
  0
SEQEND
  5
266
330
263
100
AcDbEntity
  8
1
  6
Continuous
 62
     7
370
    30
  0
MTEXT
  5
267
330
1F
100
AcDbEntity
  8
1
  6
Continuous
 62
     7
370
     9
100
AcDbMText
 10
129.4264564232396
 20
508.6069878767518
 30
0.0
 40
14.0
 41
8.279677687132676
 46
14.0
 71
     5
 72
     1
  1
{\fＭＳ ゴシック;\W0.612245;２}
 73
     1
 44
1.0
1001
ACAD
1000
ACAD_MTEXT_DEFINED_HEIGHT_BEGIN
1070
    46
1040
14.0
1000
ACAD_MTEXT_DEFINED_HEIGHT_END
  0
DIMENSION
  5
271
330
1F
100
AcDbEntity
  8
1
  6
PHANTOM
 62
     7
370
    30
100
AcDbDimension
280
     0
  2
Dim5
 10
516.1811612477929
 20
362.0000001615281
 30
0.0
 11
516.1811612477929
 21
384.5986190640976
 31
0.0
 70
   160
  1
<>
 71
     8
 42
-1.0
 73
     0
 74
     0
 75
     0
 53
89.99999999999991
  3
Standard
100
AcDbAlignedDimension
 13
578.2258145967935
 23
368.0000003625366
 33
0.0
 14
576.9849215287553
 24
362.000000161528
 34
0.0
 50
-89.99999999999991
100
AcDbRotatedDimension
1001
ACAD
1000
DSTYLE
1002
{
1070
   279
1070
     1
1070
   340
1005
160
1070
   140
1040
14.0
1070
    40
1040
1.0
1070
   147
1040
0.0
1070
    76
1070
     0
1070
    75
1070
     0
1070
   344
1005
7F
1070
   343
1005
7F
1070
   173
1070
     1
1070
   289
1070
     2
1070
   288
1070
     1
1070
    77
1070
     1
1070
   172
1070
     1
1070
   174
1070
     0
1070
    74
1070
     0
1070
    73
1070
     0
1070
   284
1070
     8
1070
    78
1070
     8
1070
    42
1040
8.0
1070
    44
1040
8.0
1070
    43
1040
10.0
1070
   271
1070
     2
1070
    41
1040
16.0
1002
}
  0
LINE
  5
272
330
1F
100
AcDbEntity
  8
1
  6
Continuous
 62
     7
370
    30
100
AcDbLine
 10
198.2960735110955
 20
448.3353386188602
 30
0.0
 11
198.8008545893346
 21
453.9587378403495
 31
0.0
  0
LINE
  5
273
330
1F
100
AcDbEntity
  8
1
  6
Continuous
 62
     7
370
    30
100
AcDbLine
 10
195.5326588573704
 20
460.7402439841752
 30
0.0
 11
198.8008545893346
 21
453.9587378403495
 31
0.0
  0
LINE
  5
274
330
1F
100
AcDbEntity
  8
1
  6
Continuous
 62
     7
370
    30
100
AcDbLine
 10
198.0655105496427
 20
467.7668648078982
 30
0.0
 11
195.5326588573704
 21
460.7402439841752
 31
0.0
  0
LINE
  5
275
330
1F
100
AcDbEntity
  8
1
  6
Continuous
 62
     7
370
    30
100
AcDbLine
 10
199.3577137615515
 20
477.1834577590752
 30
0.0
 11
198.0655105496427
 21
467.7668648078982
 31
0.0
  0
LINE
  5
276
330
1F
100
AcDbEntity
  8
1
  6
HIDDEN
 62
     7
370
     9
100
AcDbLine
 10
558.5685663924796
 20
368.0000003625368
 30
0.0
 11
619.7185663924797
 21
368.0000003625367
 31
0.0
  0
LINE
  5
277
330
1F
100
AcDbEntity
  8
1
  6
Continuous
 62
     7
370
    30
100
AcDbLine
 10
558.5685663924796
 20
368.0000003625368
 30
0.0
 11
619.7185663924797
 21
368.0000003625367
 31
0.0
  0
LINE
  5
278
330
1F
100
AcDbEntity
  8
1
  6
Continuous
 62
     7
370
     9
100
AcDbLine
 10
619.7185663924797
 20
386.4913525964431
 30
0.0
 11
562.5685663924796
 21
386.4827049511987
 31
0.0
  0
LINE
  5
279
330
1F
100
AcDbEntity
  8
1
  6
Continuous
 62
     7
370
     9
100
AcDbLine
 10
615.6868954880334
 20
386.5000002416957
 30
0.0
 11
558.5368954880333
 21
386.5000002416959
 31
0.0
  0
LINE
  5
27A
330
1F
100
AcDbEntity
  8
1
  6
HIDDEN
 62
     7
370
    30
100
AcDbLine
 10
562.5685663924796
 20
389.764650032728
 30
0.0
 11
562.5685663924796
 21
362.0000002416957
 31
0.0
  0
DIMENSION
  5
284
330
1F
100
AcDbEntity
  8
1
  6
Continuous
 62
     7
370
    30
100
AcDbDimension
280
     0
  2
Dim6
 10
358.8685663924786
 20
303.1721444836891
 30
0.0
 11
294.7185663924797
 21
303.1721444836891
 31
0.0
 70
   160
  1
φ<>
 71
     8
 42
-1.0
 73
     0
 74
     0
 75
     0
  3
Standard
100
AcDbAlignedDimension
 13
230.5685663924791
 23
365.0000002416959
 33
0.0
 14
358.8685663924789
 24
365.0000002416956
 34
0.0
100
AcDbRotatedDimension
1001
ACAD
1000
DSTYLE
1002
{
1070
   279
1070
     1
1070
   340
1005
160
1070
   140
1040
14.0
1070
    40
1040
1.0
1070
   147
1040
0.0
1070
    76
1070
     0
1070
    75
1070
     0
1070
   344
1005
7F
1070
   343
1005
7F
1070
   173
1070
     1
1070
   289
1070
     2
1070
   288
1070
     1
1070
    77
1070
     1
1070
   172
1070
     1
1070
   174
1070
     0
1070
    74
1070
     0
1070
    73
1070
     0
1070
   284
1070
     8
1070
    78
1070
     8
1070
    42
1040
8.0
1070
    44
1040
8.0
1070
    43
1040
10.0
1070
   271
1070
     2
1070
    41
1040
16.0
1002
}
  0
ARC
  5
285
330
1F
100
AcDbEntity
  8
1
  6
Continuous
 62
     7
370
    30
100
AcDbCircle
 10
357.3685663924782
 20
656.0000003746045
 30
0.0
 40
3.000000132908781
100
AcDbArc
 50
270.0000000000214
 51
89.99999999999991
  0
ARC
  5
286
330
1F
100
AcDbEntity
  8
1
  6
Continuous
 62
     7
370
    30
100
AcDbCircle
 10
232.068566390199
 20
656.0000003493901
 30
0.0
 40
3.000000107694405
100
AcDbArc
 50
89.99999999999991
 51
269.9999999999998
  0
LINE
  5
287
330
1F
100
AcDbEntity
  8
1
  6
Continuous
 62
     7
370
    30
100
AcDbLine
 10
232.068566390199
 20
653.0000002416957
 30
0.0
 11
294.7185663924797
 21
653.0000000731736
 31
0.0
  0
DIMENSION
  5
291
330
1F
100
AcDbEntity
  8
1
  6
Continuous
 62
     7
370
    30
100
AcDbDimension
280
     0
  2
Dim7
 10
360.3685665253871
 20
709.1509928973642
 30
0.0
 11
294.7185663924797
 21
709.1509928973642
 31
0.0
 70
   160
  1
φ<>
 71
     8
 42
-1.0
 73
     0
 74
     0
 75
     0
  3
Standard
100
AcDbAlignedDimension
 13
229.0685662825046
 23
656.0000003493901
 33
0.0
 14
360.368566525387
 24
656.0000003746045
 34
0.0
100
AcDbRotatedDimension
1001
ACAD
1000
DSTYLE
1002
{
1070
   279
1070
     1
1070
   340
1005
160
1070
   140
1040
14.0
1070
    40
1040
1.0
1070
   147
1040
0.0
1070
    76
1070
     0
1070
    75
1070
     0
1070
   344
1005
7F
1070
   343
1005
7F
1070
   173
1070
     1
1070
   289
1070
     2
1070
   288
1070
     1
1070
    77
1070
     1
1070
   172
1070
     1
1070
   174
1070
     0
1070
    74
1070
     0
1070
    73
1070
     0
1070
   284
1070
     8
1070
    78
1070
     8
1070
    42
1040
8.0
1070
    44
1040
8.0
1070
    43
1040
10.0
1070
   271
1070
     2
1070
    41
1040
16.0
1002
}
  0
DIMENSION
  5
29B
330
1F
100
AcDbEntity
  8
1
  6
Continuous
 62
     7
370
    30
100
AcDbDimension
280
     0
  2
Dim8
 10
678.3685663924797
 20
683.8655436429285
 30
0.0
 11
619.2725865348373
 21
683.8655436429285
 31
0.0
 70
   160
  1
φ<>
 71
     8
 42
-1.0
 73
     0
 74
     0
 75
     0
  3
Standard
100
AcDbAlignedDimension
 13
561.0685663924796
 23
656.910761254014
 33
0.0
 14
678.3685663924797
 24
655.2562371647073
 34
0.0
100
AcDbRotatedDimension
1001
ACAD
1000
DSTYLE
1002
{
1070
   279
1070
     1
1070
   340
1005
160
1070
   140
1040
14.0
1070
    40
1040
1.0
1070
   147
1040
0.0
1070
    76
1070
     0
1070
    75
1070
     0
1070
   344
1005
7F
1070
   343
1005
7F
1070
   173
1070
     1
1070
   289
1070
     2
1070
   288
1070
     1
1070
    77
1070
     1
1070
   172
1070
     1
1070
   174
1070
     0
1070
    74
1070
     0
1070
    73
1070
     0
1070
   284
1070
     8
1070
    78
1070
     8
1070
    42
1040
8.0
1070
    44
1040
8.0
1070
    43
1040
10.0
1070
   271
1070
     2
1070
    41
1040
16.0
1002
}
  0
DIMENSION
  5
2A5
330
1F
100
AcDbEntity
  8
1
  6
Continuous
 62
     7
370
    30
100
AcDbDimension
280
     0
  2
Dim9
 10
425.1909461155129
 20
393.0000000919837
 30
0.0
 11
425.1909461155129
 21
377.525985173555
 31
0.0
 70
   160
  1
<>
 71
     8
 42
-1.0
 73
     0
 74
     0
 75
     0
  3
Standard
100
AcDbAlignedDimension
 13
353.8516873749037
 23
362.0000000901338
 33
0.0
 14
362.9619894974201
 24
393.0000000919837
 34
0.0
 50
89.99999999999991
100
AcDbRotatedDimension
1001
ACAD
1000
DSTYLE
1002
{
1070
   279
1070
     1
1070
   340
1005
160
1070
   140
1040
14.0
1070
    40
1040
1.0
1070
   147
1040
0.0
1070
    76
1070
     0
1070
    75
1070
     0
1070
   344
1005
7F
1070
   343
1005
7F
1070
   173
1070
     1
1070
   289
1070
     2
1070
   288
1070
     1
1070
    77
1070
     1
1070
   172
1070
     1
1070
   174
1070
     0
1070
    74
1070
     0
1070
    73
1070
     0
1070
   284
1070
     8
1070
    78
1070
     8
1070
    42
1040
8.0
1070
    44
1040
8.0
1070
    43
1040
10.0
1070
   271
1070
     2
1070
    41
1040
16.0
1002
}
  0
DIMENSION
  5
2AF
330
1F
100
AcDbEntity
  8
1
  6
Continuous
 62
     7
370
    30
100
AcDbDimension
280
     0
  2
Dim10
 10
425.123382739
 20
628.0000002416958
 30
0.0
 11
425.123382739
 21
643.7409537653649
 31
0.0
 70
   160
  1
<>
 71
     8
 42
-1.0
 73
     0
 74
     0
 75
     0
 53
89.99999999999991
  3
Standard
100
AcDbAlignedDimension
 13
347.0089025609781
 23
659.0000002416957
 33
0.0
 14
363.7505617113315
 24
628.0000002416958
 34
0.0
 50
-89.99999999999991
100
AcDbRotatedDimension
1001
ACAD
1000
DSTYLE
1002
{
1070
   279
1070
     1
1070
   340
1005
160
1070
   140
1040
14.0
1070
    40
1040
1.0
1070
   147
1040
0.0
1070
    76
1070
     0
1070
    75
1070
     0
1070
   344
1005
7F
1070
   343
1005
7F
1070
   173
1070
     1
1070
   289
1070
     2
1070
   288
1070
     1
1070
    77
1070
     1
1070
   172
1070
     1
1070
   174
1070
     0
1070
    74
1070
     0
1070
    73
1070
     0
1070
   284
1070
     8
1070
    78
1070
     8
1070
    42
1040
8.0
1070
    44
1040
8.0
1070
    43
1040
10.0
1070
   271
1070
     2
1070
    41
1040
16.0
1002
}
  0
DIMENSION
  5
2B6
330
1F
100
AcDbEntity
  8
1
  6
Continuous
 62
     7
370
    30
100
AcDbDimension
280
     0
  2
Dim11
 10
425.1233827391604
 20
628.0000002422944
 30
0.0
 11
425.1233827391604
 21
505.5677660849162
 31
0.0
 70
   160
  1
<>
 71
     8
 42
-1.0
 73
     0
 74
     0
 75
     0
  3
Standard
100
AcDbAlignedDimension
 13
425.1909461155129
 23
393.0000002438668
 33
0.0
 14
425.1233827391604
 24
628.0000002422944
 34
0.0
 50
89.99999999999991
100
AcDbRotatedDimension
1001
ACAD
1000
DSTYLE
1002
{
1070
   279
1070
     1
1070
   340
1005
160
1070
   140
1040
14.0
1070
    40
1040
1.0
1070
   147
1040
0.0
1070
    76
1070
     0
1070
    75
1070
     0
1070
   344
1005
AC
1070
   343
1005
AC
1070
   173
1070
     1
1070
   289
1070
     2
1070
   288
1070
     1
1070
    77
1070
     1
1070
   172
1070
     1
1070
   174
1070
     0
1070
    74
1070
     0
1070
    73
1070
     0
1070
   284
1070
     8
1070
    78
1070
     8
1070
    42
1040
8.0
1070
    44
1040
8.0
1070
    43
1040
10.0
1070
   271
1070
     2
1070
    41
1040
0.0
1002
}
  0
DIMENSION
  5
2C0
330
1F
100
AcDbEntity
  8
1
  6
Continuous
 62
     7
370
    30
100
AcDbDimension
280
     0
  2
Dim12
 10
450.1144711567001
 20
659.0000002416957
 30
0.0
 11
450.1144711567001
 21
506.2666811033216
 31
0.0
 70
   160
  1
<>
 71
     8
 42
-1.0
 73
     0
 74
     0
 75
     0
  3
Standard
100
AcDbAlignedDimension
 13
331.6091832601078
 23
362.0000002416959
 33
0.0
 14
318.5798060568175
 24
659.0000002416957
 34
0.0
 50
89.99999999999991
100
AcDbRotatedDimension
1001
ACAD
1000
DSTYLE
1002
{
1070
   279
1070
     1
1070
   340
1005
160
1070
   140
1040
14.0
1070
    40
1040
1.0
1070
   147
1040
0.0
1070
    76
1070
     0
1070
    75
1070
     0
1070
   344
1005
7F
1070
   343
1005
7F
1070
   173
1070
     1
1070
   289
1070
     2
1070
   288
1070
     1
1070
    77
1070
     1
1070
   172
1070
     1
1070
   174
1070
     0
1070
    74
1070
     0
1070
    73
1070
     0
1070
   284
1070
     8
1070
    78
1070
     8
1070
    42
1040
8.0
1070
    44
1040
8.0
1070
    43
1040
10.0
1070
   271
1070
     2
1070
    41
1040
16.0
1002
}
  0
DIMENSION
  5
2CA
330
1F
100
AcDbEntity
  8
1
  6
Continuous
 62
     7
370
    30
100
AcDbDimension
280
     0
  2
Dim13
 10
189.2544587400201
 20
733.8667231203436
 30
0.0
 11
285.9183240597652
 21
733.8667231203436
 31
0.0
 70
   160
  1
φ<>
 71
     8
 42
-1.0
 73
     0
 74
     0
 75
     0
  3
Standard
100
AcDbAlignedDimension
 13
400.1340423007343
 23
590.9201512044864
 33
0.0
 14
189.2544587400199
 24
592.1609443209078
 34
0.0
 50
179.9999999999998
100
AcDbRotatedDimension
1001
ACAD
1000
DSTYLE
1002
{
1070
   279
1070
     1
1070
   340
1005
160
1070
   140
1040
14.0
1070
    40
1040
1.0
1070
   147
1040
0.0
1070
    76
1070
     0
1070
    75
1070
     0
1070
   344
1005
7F
1070
   343
1005
7F
1070
   173
1070
     1
1070
   289
1070
     2
1070
   288
1070
     1
1070
    77
1070
     1
1070
   172
1070
     1
1070
   174
1070
     0
1070
    74
1070
     0
1070
    73
1070
     0
1070
   284
1070
     8
1070
    78
1070
     8
1070
    42
1040
8.0
1070
    44
1040
8.0
1070
    43
1040
10.0
1070
   271
1070
     2
1070
    41
1040
16.0
1002
}
  0
MTEXT
  5
2CB
330
1F
100
AcDbEntity
  8
1
  6
Continuous
 62
     7
370
     9
100
AcDbMText
 10
530.3581811388374
 20
1087.713750107899
 30
0.0
 40
15.6
 41
110.9994548929849
 46
15.6
 71
     5
 72
     1
  1
{\fＭＳ ゴシック;\W0.714286;黒　ｔ＝4.0}
 11
0.9999882634776833
 21
-0.004844884610338344
 31
0.0
 73
     1
 44
1.0
1001
ACAD
1000
ACAD_MTEXT_DEFINED_HEIGHT_BEGIN
1070
    46
1040
15.6
1000
ACAD_MTEXT_DEFINED_HEIGHT_END
  0
LINE
  5
2CC
330
1F
100
AcDbEntity
  8
1
  6
Continuous
 62
     7
370
    30
100
AcDbLine
 10
770.2586882736484
 20
971.6004700352527
 30
0.0
 11
770.2586882736484
 21
911.6004700352527
 31
0.0
  0
LINE
  5
2CD
330
1F
100
AcDbEntity
  8
1
  6
Continuous
 62
     7
370
    30
100
AcDbLine
 10
770.2586882736484
 20
881.6004700352527
 30
0.0
 11
530.2586882736484
 21
881.6004700352527
 31
0.0
  0
LINE
  5
2CE
330
1F
100
AcDbEntity
  8
1
  6
Continuous
 62
     7
370
    30
100
AcDbLine
 10
770.2586882736484
 20
941.6004700352527
 30
0.0
 11
770.2586882736484
 21
881.6004700352527
 31
0.0
  0
ARC
  5
2CF
330
1F
100
AcDbEntity
  8
1
  6
Continuous
 62
     7
370
    80
100
AcDbCircle
 10
553.5665744675849
 20
965.6517222863653
 30
0.0
 40
1.0
100
AcDbArc
 50
25.55575051724862
 51
154.2936051077007
  0
LINE
  5
2D0
330
1F
100
AcDbEntity
  8
1
  6
Continuous
 62
     7
370
    30
100
AcDbLine
 10
480.0
 20
971.6004700352528
 30
0.0
 11
770.2586882736484
 21
971.6004700352527
 31
0.0
  0
LINE
  5
2D1
330
1F
100
AcDbEntity
  8
1
  6
Continuous
 62
     7
370
    30
100
AcDbLine
 10
480.0
 20
881.6004700352527
 30
0.0
 11
480.0
 21
971.6004700352528
 31
0.0
  0
LINE
  5
2D2
330
1F
100
AcDbEntity
  8
1
  6
Continuous
 62
     7
370
    30
100
AcDbLine
 10
480.0
 20
881.6004700352527
 30
0.0
 11
531.2129101726526
 21
881.6004700352527
 31
0.0
  0
MTEXT
  5
2D3
330
1F
100
AcDbEntity
  8
1
  6
Continuous
 62
     7
370
     9
100
AcDbMText
 10
516.735256996127
 20
946.3699351525435
 30
0.0
 40
20.0
 41
3.245690212178914
 46
20.0
 71
     7
 72
     1
  1
{\fＭＳ 明朝;\W0.714286;！}
 73
     1
 44
1.0
1001
ACAD
1000
ACAD_MTEXT_DEFINED_HEIGHT_BEGIN
1070
    46
1040
20.0
1000
ACAD_MTEXT_DEFINED_HEIGHT_END
  0
LINE
  5
2D4
330
1F
100
AcDbEntity
  8
1
  6
Continuous
 62
     7
370
    80
100
AcDbLine
 10
525.7795294021671
 20
966.49911296152
 30
0.0
 11
517.3458630383805
 21
948.9802527662191
 31
0.0
  0
ARC
  5
2D5
330
1F
100
AcDbEntity
  8
1
  6
Continuous
 62
     7
370
    80
100
AcDbCircle
 10
518.2468916525646
 20
948.5464931133912
 30
0.0
 40
1.0
100
AcDbArc
 50
154.2936051077066
 51
270.0000000000061
  0
LINE
  5
2D6
330
1F
100
AcDbEntity
  8
1
  6
Continuous
 62
     7
370
    80
100
AcDbLine
 10
518.2468916525647
 20
947.5464931133912
 30
0.0
 11
535.0575599382028
 21
947.5464931133912
 31
0.0
  0
LINE
  5
2D7
330
1F
100
AcDbEntity
  8
1
  6
Continuous
 62
     7
370
    80
100
AcDbLine
 10
535.9597258950911
 20
948.9778822488961
 30
0.0
 11
527.5827239732396
 21
966.496742444197
 31
0.0
  0
ARC
  5
2D8
330
1F
100
AcDbEntity
  8
1
  6
Continuous
 62
     7
370
    80
100
AcDbCircle
 10
535.0575599382028
 20
948.5464931133912
 30
0.0
 40
1.0
100
AcDbArc
 50
269.9999999999998
 51
25.55575051724274
  0
MTEXT
  5
2D9
330
1F
100
AcDbEntity
  8
1
  6
Continuous
 62
     7
370
     9
100
AcDbMText
 10
516.7199373286335
 20
945.0677634155894
 30
0.0
 40
24.0
 41
310.1952351427644
 46
24.0
 71
     7
 72
     1
  1
{\fＭＳ 明朝;\W0.595238;　 ご使用に関する注意}
 11
0.9999768486405758
 21
-0.006804570733190172
 31
0.0
 73
     1
 44
1.0
1001
ACAD
1000
ACAD_MTEXT_DEFINED_HEIGHT_BEGIN
1070
    46
1040
24.0
1000
ACAD_MTEXT_DEFINED_HEIGHT_END
  0
LINE
  5
2DA
330
1F
100
AcDbEntity
  8
1
  6
Continuous
 62
     7
370
    30
100
AcDbLine
 10
491.5840865019609
 20
937.8354618708887
 30
0.0
 11
752.8169059482445
 21
937.8354618708887
 31
0.0
  0
MTEXT
  5
2DB
330
1F
100
AcDbEntity
  8
1
  6
Continuous
 62
     7
370
     9
100
AcDbMText
 10
491.5840865019609
 20
923.2812148702651
 30
0.0
 40
10.8
 41
0.0
 46
10.8
 71
     7
 72
     1
  1
{\fＭＳ 明朝;\W0.714286;　}
 73
     1
 44
1.0
1001
ACAD
1000
ACAD_MTEXT_DEFINED_HEIGHT_BEGIN
1070
    46
1040
10.8
1000
ACAD_MTEXT_DEFINED_HEIGHT_END
  0
MTEXT
  5
2DC
330
1F
100
AcDbEntity
  8
1
  6
Continuous
 62
     7
370
     9
100
AcDbMText
 10
502.3768618860408
 20
911.800656050576
 30
0.0
 40
10.8
 41
0.0
 46
10.8
 71
     7
 72
     1
  1
{\fＭＳ 明朝;\W0.714286;　}
 73
     1
 44
1.0
1001
ACAD
1000
ACAD_MTEXT_DEFINED_HEIGHT_BEGIN
1070
    46
1040
10.8
1000
ACAD_MTEXT_DEFINED_HEIGHT_END
  0
MTEXT
  5
2DD
330
1F
100
AcDbEntity
  8
1
  6
Continuous
 62
     7
370
     9
100
AcDbMText
 10
504.9265051661027
 20
908.0484916746886
 30
0.0
 40
10.8
 41
164.1879617132697
 46
10.8
 71
     7
 72
     1
  1
{\fＭＳ 明朝;\W0.714286;劣化の原因となります。}
 73
     1
 44
1.0
1001
ACAD
1000
ACAD_MTEXT_DEFINED_HEIGHT_BEGIN
1070
    46
1040
10.8
1000
ACAD_MTEXT_DEFINED_HEIGHT_END
  0
MTEXT
  5
2DE
330
1F
100
AcDbEntity
  8
1
  6
Continuous
 62
     7
370
     9
100
AcDbMText
 10
493.6649479567193
 20
919.7159504377996
 30
0.0
 40
10.8
 41
368.1225810667387
 46
10.8
 71
     7
 72
     1
  1
{\fＭＳ 明朝;\W0.714286;１．ガソリン等の有機溶剤は使用しないでください。}
 73
     1
 44
1.0
1001
ACAD
1000
ACAD_MTEXT_DEFINED_HEIGHT_BEGIN
1070
    46
1040
10.8
1000
ACAD_MTEXT_DEFINED_HEIGHT_END
  0
MTEXT
  5
2DF
330
1F
100
AcDbEntity
  8
1
  6
Continuous
 62
     7
370
     9
100
AcDbMText
 10
301.1904077991029
 20
194.0
 30
0.0
 40
20.0
 41
589.4174219685289
 46
20.0
 71
     7
 72
     1
  1
{\fＭＳ 明朝;\W0.571429;a　　L43719aを書き換え　　　　　　2020.10.14　吉田}
 73
     1
 44
1.0
1001
ACAD
1000
ACAD_MTEXT_DEFINED_HEIGHT_BEGIN
1070
    46
1040
20.0
1000
ACAD_MTEXT_DEFINED_HEIGHT_END
  0
MTEXT
  5
2E0
330
1F
100
AcDbEntity
  8
1
  6
Continuous
 62
     7
370
     9
100
AcDbMText
 10
460.0
 20
131.0000000953675
 30
0.0
 40
8.96
 41
79.9076953368305
 46
8.96
 71
     5
 72
     1
  1
{\fＭＳ ゴシック;\W0.714286;2020年10月14日}
 11
0.9999111391744201
 21
-0.0133309322597295
 31
0.0
 73
     1
 44
1.0
1001
ACAD
1000
ACAD_MTEXT_DEFINED_HEIGHT_BEGIN
1070
    46
1040
8.96
1000
ACAD_MTEXT_DEFINED_HEIGHT_END
  0
MTEXT
  5
2E1
330
1F
100
AcDbEntity
  8
1
  6
Continuous
 62
     7
370
     9
100
AcDbMText
 10
460.2757540148845
 20
149.0000000953675
 30
0.0
 40
8.96
 41
79.9076953368305
 46
8.96
 71
     5
 72
     1
  1
{\fＭＳ ゴシック;\W0.714286;2020年10月14日}
 11
0.999881974074305
 21
-0.01536352567840214
 31
0.0
 73
     1
 44
1.0
1001
ACAD
1000
ACAD_MTEXT_DEFINED_HEIGHT_BEGIN
1070
    46
1040
8.96
1000
ACAD_MTEXT_DEFINED_HEIGHT_END
  0
MTEXT
  5
2E2
330
1F
100
AcDbEntity
  8
1
  6
Continuous
 62
     7
370
     9
100
AcDbMText
 10
460.5515080297689
 20
167.0000000953675
 30
0.0
 40
8.96
 41
79.9076953368305
 46
8.96
 71
     5
 72
     1
  1
{\fＭＳ ゴシック;\W0.714286;2020年10月14日}
 11
0.9999988629606131
 21
0.001508004469781843
 31
0.0
 73
     1
 44
1.0
1001
ACAD
1000
ACAD_MTEXT_DEFINED_HEIGHT_BEGIN
1070
    46
1040
8.96
1000
ACAD_MTEXT_DEFINED_HEIGHT_END
  0
MTEXT
  5
2E3
330
1F
100
AcDbEntity
  8
1
  6
Continuous
 62
     7
370
     9
100
AcDbMText
 10
649.5404868279552
 20
74.14577633706543
 30
0.0
 40
25.2
 41
185.3653196786717
 46
25.2
 71
     5
 72
     1
  1
{\fＭＳ 明朝|i1;\W0.714286;TKZA-40009}
 11
0.9999281529965982
 21
-0.01198702818932383
 31
0.0
 73
     1
 44
1.0
1001
ACAD
1000
ACAD_MTEXT_DEFINED_HEIGHT_BEGIN
1070
    46
1040
25.2
1000
ACAD_MTEXT_DEFINED_HEIGHT_END
  0
ARC
  5
2E4
330
1F
100
AcDbEntity
  8
1
  6
Continuous
 62
     7
370
    30
100
AcDbCircle
 10
611.2185663057624
 20
465.4980118723977
 30
0.0
 40
7.499999924901696
100
AcDbArc
 50
149.999999668769
 51
359.9999999999992
  0
ARC
  5
2E5
330
1F
100
AcDbEntity
  8
1
  6
Continuous
 62
     7
370
    30
100
AcDbCircle
 10
611.2185663057624
 20
465.4980118723977
 30
0.0
 40
10.49999992490176
100
AcDbArc
 50
149.999999763406
 51
359.9999999999993
  0
CIRCLE
  5
2E6
330
1F
100
AcDbEntity
  8
1
  6
DASHDOT
 62
     7
370
     9
100
AcDbCircle
 10
611.2185663924784
 20
465.4980118723977
 30
0.0
 40
7.5
  0
CIRCLE
  5
2E7
330
1F
100
AcDbEntity
  8
1
  6
DASHDOT
 62
     7
370
     9
100
AcDbCircle
 10
611.2185663924784
 20
465.4980118723977
 30
0.0
 40
9.0
  0
CIRCLE
  5
2E8
330
1F
100
AcDbEntity
  8
1
  6
DASHDOT
 62
     7
370
     9
100
AcDbCircle
 10
611.2185663924784
 20
465.4980118723977
 30
0.0
 40
10.5
  0
CIRCLE
  5
2E9
330
1F
100
AcDbEntity
  8
1
  6
DASHDOT
 62
     7
370
     9
100
AcDbCircle
 10
611.2185663924784
 20
465.4980118723977
 30
0.0
 40
10.5
  0
LINE
  5
2EA
330
1F
100
AcDbEntity
  8
1
  6
Continuous
 62
     7
370
    30
100
AcDbLine
 10
602.1252996527417
 20
470.7480118723979
 30
0.0
 11
604.723375864095
 21
469.2480118723977
 31
0.0
  0
LINE
  5
2EB
330
1F
100
AcDbEntity
  8
1
  6
DASHDOT
 62
     7
370
     9
100
AcDbLine
 10
627.8282820864331
 20
465.4980118723976
 30
0.0
 11
595.4271853375101
 21
465.4980118723977
 31
0.0
  0
LINE
  5
2EC
330
1F
100
AcDbEntity
  8
1
  6
DASHDOT
 62
     7
370
     9
100
AcDbLine
 10
611.2185663924781
 20
453.3308136959596
 30
0.0
 11
611.2185663924784
 21
479.3206295988192
 31
0.0
  0
LINE
  5
2ED
330
1F
100
AcDbEntity
  8
1
  6
DASHDOT
 62
     7
370
     9
100
AcDbLine
 10
611.2185663924781
 20
453.3508257347409
 30
0.0
 11
611.2185663924784
 21
479.3406416376004
 31
0.0
  0
LINE
  5
2EE
330
1F
100
AcDbEntity
  8
1
  6
Continuous
 62
     7
370
    30
100
AcDbLine
 10
678.3685663924797
 20
634.0000002416906
 30
0.0
 11
621.0784500808319
 21
461.88793010531
 31
0.0
  0
LINE
  5
2EF
330
1F
100
AcDbEntity
  8
1
  6
Continuous
 62
     7
370
    30
100
AcDbLine
 10
619.7945469953039
 20
462.7680747485868
 30
0.0
 11
676.8685663924797
 21
634.2375888670014
 31
0.0
  0
LINE
  5
2F0
330
1F
100
AcDbEntity
  8
1
  6
HIDDEN
 62
     7
370
     9
100
AcDbLine
 10
562.5685771986148
 20
633.9999930055371
 30
0.0
 11
619.7185663924798
 21
468.4560517639433
 31
0.0
  0
LINE
  5
2F1
330
1F
100
AcDbEntity
  8
1
  6
Continuous
 62
     7
370
    30
100
AcDbLine
 10
618.3146356399643
 20
467.9261389767486
 30
0.0
 11
605.6993597293481
 21
504.4682721256244
 31
0.0
  0
LINE
  5
2F2
330
1F
100
AcDbEntity
  8
1
  6
HIDDEN
 62
     7
370
    30
100
AcDbLine
 10
561.0685663924796
 20
633.9999930055371
 30
0.0
 11
605.6993597293481
 21
504.4682721256244
 31
0.0
  0
LINE
  5
2F3
330
1F
100
AcDbEntity
  8
1
  6
Continuous
 62
     7
370
    30
100
AcDbLine
 10
207.2185663924797
 20
454.9980118723977
 30
0.0
 11
207.2185663924797
 21
464.9980118723976
 31
0.0
  0
LINE
  5
2F4
330
1F
100
AcDbEntity
  8
1
  6
Continuous
 62
     7
370
    30
100
AcDbLine
 10
294.7185663924797
 20
456.4980118723977
 30
0.0
 11
380.7185663924797
 21
456.4980118723977
 31
0.0
  0
LINE
  5
2F5
330
1F
100
AcDbEntity
  8
1
  6
Continuous
 62
     7
370
    30
100
AcDbLine
 10
207.2185663924797
 20
454.9980118723977
 30
0.0
 11
382.2185663924797
 21
454.9980118723977
 31
0.0
  0
LINE
  5
2F6
330
1F
100
AcDbEntity
  8
1
  6
Continuous
 62
     7
370
    30
100
AcDbLine
 10
207.2185663924797
 20
464.9980118723976
 30
0.0
 11
294.7185663924797
 21
464.9980118723976
 31
0.0
  0
LINE
  5
2F7
330
1F
100
AcDbEntity
  8
1
  6
Continuous
 62
     7
370
    30
100
AcDbLine
 10
382.2185663924797
 20
454.9980118723977
 30
0.0
 11
382.2185663924797
 21
464.9980118723976
 31
0.0
  0
LINE
  5
2F8
330
1F
100
AcDbEntity
  8
1
  6
Continuous
 62
     7
370
    30
100
AcDbLine
 10
380.7185663924797
 20
464.9980118723976
 30
0.0
 11
380.7185663924797
 21
456.4980118723977
 31
0.0
  0
LINE
  5
2F9
330
1F
100
AcDbEntity
  8
1
  6
Continuous
 62
     7
370
    30
100
AcDbLine
 10
207.2185663924797
 20
464.9980118723976
 30
0.0
 11
215.5586209480355
 21
506.8710631481891
 31
0.0
  0
LINE
  5
2FA
330
1F
100
AcDbEntity
  8
1
  6
Continuous
 62
     7
370
    30
100
AcDbLine
 10
380.7185663924797
 20
464.3297856341338
 30
0.0
 11
351.8685663924789
 21
633.940575536881
 31
0.0
  0
LINE
  5
2FB
330
1F
100
AcDbEntity
  8
1
  6
Continuous
 62
     7
370
    30
100
AcDbLine
 10
382.2185663924797
 20
464.9980118723976
 30
0.0
 11
353.3685663924789
 21
634.000000241696
 31
0.0
  0
MTEXT
  5
2FC
330
1F
100
AcDbEntity
  8
1
  6
Continuous
 62
     7
370
     9
100
AcDbMText
 10
440.3366627497061
 20
1089.5
 30
0.0
 40
15.6
 41
79.88794992440566
 46
15.6
 71
     5
 72
     1
  1
{\fＭＳ ゴシック;\W0.714286;EPDMゴム}
 11
0.9999966605411085
 21
0.002584358069418621
 31
0.0
 73
     1
 44
1.0
1001
ACAD
1000
ACAD_MTEXT_DEFINED_HEIGHT_BEGIN
1070
    46
1040
15.6
1000
ACAD_MTEXT_DEFINED_HEIGHT_END
  0
LINE
  5
2FD
330
1F
100
AcDbEntity
  8
1
  6
DASHDOT
 62
     7
370
    30
100
AcDbLine
 10
166.9702982108457
 20
874.1492168497023
 30
0.0
 11
421.3533769417484
 21
874.1492168497023
 31
0.0
  0
LINE
  5
2FE
330
1F
100
AcDbEntity
  8
1
  6
DASHDOT
 62
     7
370
    30
100
AcDbLine
 10
294.7185663924797
 20
953.7267765170816
 30
0.0
 11
294.7185663924797
 21
788.3887133855255
 31
0.0
  0
CIRCLE
  5
2FF
330
1F
100
AcDbEntity
  8
1
  6
Continuous
 62
     7
370
    30
100
AcDbCircle
 10
294.7185663924797
 20
874.1492168497023
 30
0.0
 40
55.99033891714305
  0
CIRCLE
  5
300
330
1F
100
AcDbEntity
  8
1
  6
Continuous
 62
     7
370
    30
100
AcDbCircle
 10
294.7185663924797
 20
874.1492168497023
 30
0.0
 40
57.14999999999998
  0
CIRCLE
  5
301
330
1F
100
AcDbEntity
  8
1
  6
Continuous
 62
     7
370
    30
100
AcDbCircle
 10
294.7185663924797
 20
874.1492168497023
 30
0.0
 40
64.65000013290876
  0
LINE
  5
302
330
1F
100
AcDbEntity
  8
1
  6
Continuous
 62
     7
370
     9
100
AcDbLine
 10
235.0611124991522
 20
811.7055531576673
 30
0.0
 11
252.1501896000077
 21
810.8074836893035
 31
0.0
  0
LINE
  5
303
330
1F
100
AcDbEntity
  8
1
  6
Continuous
 62
     7
370
     9
100
AcDbLine
 10
251.857555796612
 20
937.8157998117881
 30
0.0
 11
234.8493990890588
 21
936.7460651648955
 31
0.0
  0
LINE
  5
304
330
1F
100
AcDbEntity
  8
1
  6
Continuous
 62
     7
370
     9
100
AcDbLine
 10
257.1455333772586
 20
930.073400924405
 30
0.0
 11
251.857555796612
 21
937.8157998117881
 31
0.0
  0
LINE
  5
305
330
1F
100
AcDbEntity
  8
1
  6
Continuous
 62
     7
370
     9
100
AcDbLine
 10
257.1947791390004
 20
930.09508749431
 30
0.0
 11
257.3407902049074
 21
946.1922181087549
 31
0.0
  0
LINE
  5
306
330
1F
100
AcDbEntity
  8
1
  6
Continuous
 62
     7
370
     9
100
AcDbLine
 10
257.3838247724034
 20
818.4322184253995
 30
0.0
 11
252.1501896000077
 21
810.8074836893035
 31
0.0
  0
LINE
  5
307
330
1F
100
AcDbEntity
  8
1
  6
Continuous
 62
     7
370
     9
100
AcDbLine
 10
257.6902888461811
 20
801.923967748491
 30
0.0
 11
257.3838247724034
 21
818.4322184253999
 31
0.0
  0
LINE
  5
308
330
1F
100
AcDbEntity
  8
1
  6
Continuous
 62
     7
370
     9
100
AcDbLine
 10
333.674183780176
 20
818.023141478758
 30
0.0
 11
338.502355950576
 21
810.9539077107999
 31
0.0
  0
LINE
  5
309
330
1F
100
AcDbEntity
  8
1
  6
Continuous
 62
     7
370
     9
100
AcDbLine
 10
332.8732226213914
 20
801.8915025208026
 30
0.0
 11
333.674183780176
 21
818.023141478758
 31
0.0
  0
LINE
  5
30A
330
1F
100
AcDbEntity
  8
1
  6
Continuous
 62
     7
370
     9
100
AcDbLine
 10
333.4835157997373
 20
930.7627672744275
 30
0.0
 11
333.3417213263761
 21
946.7797404306132
 31
0.0
  0
LINE
  5
30B
330
1F
100
AcDbEntity
  8
1
  6
Continuous
 62
     7
370
     9
100
AcDbLine
 10
338.3650218001567
 20
937.9623352831643
 30
0.0
 11
333.4835157997373
 21
930.7627672744275
 31
0.0
  0
LINE
  5
30C
330
1F
100
AcDbEntity
  8
1
  6
Continuous
 62
     7
370
     9
100
AcDbLine
 10
338.365033045241
 20
937.9622743528263
 30
0.0
 11
355.3767147717404
 21
936.9501421280493
 31
0.0
  0
LINE
  5
30D
330
1F
100
AcDbEntity
  8
1
  6
Continuous
 62
     7
370
     9
100
AcDbLine
 10
338.502355950576
 20
810.9539077107999
 30
0.0
 11
355.5884387843261
 21
811.909630138756
 31
0.0
  0
ARC
  5
30E
330
1F
100
AcDbEntity
  8
1
  6
Continuous
 62
     7
370
     9
100
AcDbCircle
 10
328.353628572905
 20
811.0680334412599
 30
0.0
 40
10.22914708552197
100
AcDbArc
 50
296.2210128810997
 51
358.7215753215147
  0
ARC
  5
30F
330
1F
100
AcDbEntity
  8
1
  6
Continuous
 62
     7
370
     9
100
AcDbCircle
 10
295.3735291278061
 20
874.2463238490213
 30
0.0
 40
76.72812170314268
100
AcDbArc
 50
304.2714451209313
 51
55.99123539459794
  0
ARC
  5
310
330
1F
100
AcDbEntity
  8
1
  6
Continuous
 62
     7
370
     9
100
AcDbCircle
 10
326.1058168970386
 20
936.9096317462268
 30
0.0
 40
12.0466883871322
100
AcDbArc
 50
5.087058028717621
 51
55.82167676436006
  0
ARC
  5
311
330
1F
100
AcDbEntity
  8
1
  6
Continuous
 62
     7
370
     9
100
AcDbCircle
 10
263.6431174127839
 20
937.0938910608448
 30
0.0
 40
11.54926112078763
100
AcDbArc
 50
123.1465358120785
 51
176.3347118061037
  0
ARC
  5
312
330
1F
100
AcDbEntity
  8
1
  6
Continuous
 62
     7
370
     9
100
AcDbCircle
 10
263.7974000656918
 20
811.4208393460333
 30
0.0
 40
11.48863520103008
100
AcDbArc
 50
183.7079041065087
 51
237.1988120032831
  0
ARC
  5
313
330
1F
100
AcDbEntity
  8
1
  6
Continuous
 62
     7
370
     9
100
AcDbCircle
 10
295.0614037722001
 20
874.4108485542232
 30
0.0
 40
76.72522612460584
100
AcDbArc
 50
124.2703410447665
 51
235.9936834336253
  0
ARC
  5
314
330
1F
100
AcDbEntity
  8
1
  6
Continuous
 62
     7
370
     9
100
AcDbCircle
 10
248.5329988624224
 20
935.4928789495234
 30
0.0
 40
13.74086527289996
100
AcDbArc
 50
127.1450375117453
 51
174.7672732145803
  0
ARC
  5
315
330
1F
100
AcDbEntity
  8
1
  6
Continuous
 62
     7
370
     9
100
AcDbCircle
 10
246.7243507165517
 20
812.3505476617992
 30
0.0
 40
11.6810591829229
100
AcDbArc
 50
183.1653180791614
 51
245.3098191556119
  0
ARC
  5
316
330
1F
100
AcDbEntity
  8
1
  6
Continuous
 62
     7
370
     9
100
AcDbCircle
 10
236.7938357691177
 20
909.876088947594
 30
0.0
 40
26.94023860178448
100
AcDbArc
 50
94.13897485810247
 51
140.3597534611538
  0
ARC
  5
317
330
1F
100
AcDbEntity
  8
1
  6
Continuous
 62
     7
370
     9
100
AcDbCircle
 10
279.4445177597116
 20
874.2994699971075
 30
0.0
 40
82.47876049791583
100
AcDbArc
 50
139.9268523470654
 51
219.9621619977783
  0
ARC
  5
318
330
1F
100
AcDbEntity
  8
1
  6
Continuous
 62
     7
370
     9
100
AcDbCircle
 10
236.830928867564
 20
838.4182297279563
 30
0.0
 40
26.77124090375566
100
AcDbArc
 50
219.6798105476475
 51
266.209476576022
  0
ARC
  5
319
330
1F
100
AcDbEntity
  8
1
  6
Continuous
 62
     7
370
     9
100
AcDbCircle
 10
310.988728917563
 20
874.3545498571756
 30
0.0
 40
82.48335252375087
100
AcDbArc
 50
320.2330175237488
 51
39.96101438331451
  0
ARC
  5
31A
330
1F
100
AcDbEntity
  8
1
  6
Continuous
 62
     7
370
     9
100
AcDbCircle
 10
343.9236583958804
 20
812.5147360604645
 30
0.0
 40
11.68046466058578
100
AcDbArc
 50
294.8824498862795
 51
357.0304655794334
  0
ARC
  5
31B
330
1F
100
AcDbEntity
  8
1
  6
Continuous
 62
     7
370
     9
100
AcDbCircle
 10
343.3644752169992
 20
936.1798745978801
 30
0.0
 40
12.03691036722139
100
AcDbArc
 50
3.668985947404685
 51
63.1555305289673
  0
ARC
  5
31C
330
1F
100
AcDbEntity
  8
1
  6
Continuous
 62
     7
370
     9
100
AcDbCircle
 10
353.6069611345262
 20
910.2375744654088
 30
0.0
 40
26.77112808731794
100
AcDbArc
 50
39.67972924675847
 51
86.20959513195048
  0
ARC
  5
31D
330
1F
100
AcDbEntity
  8
1
  6
Continuous
 62
     7
370
     9
100
AcDbCircle
 10
353.7312916426687
 20
838.6101048042141
 30
0.0
 40
26.76498352075969
100
AcDbArc
 50
273.9787905180216
 51
320.5199750555228
  0
ARC
  5
31E
330
1F
100
AcDbEntity
  8
1
  6
Continuous
 62
     7
370
    30
100
AcDbCircle
 10
279.5283613541845
 20
874.3012827299315
 30
0.0
 40
89.8099237005321
100
AcDbArc
 50
139.5415153704898
 51
220.6525106636195
  0
ARC
  5
31F
330
1F
100
AcDbEntity
  8
1
  6
Continuous
 62
     7
370
    30
100
AcDbCircle
 10
241.6997169612905
 20
841.4408570635773
 30
0.0
 40
39.70374950075227
100
AcDbArc
 50
220.2395696758202
 51
270.2097128204276
  0
ARC
  5
320
330
1F
100
AcDbEntity
  8
1
  6
Continuous
 62
     7
370
    30
100
AcDbCircle
 10
240.1950681369892
 20
910.029468379685
 30
0.0
 40
36.41640798177231
100
AcDbArc
 50
89.93593494973088
 51
142.4557311365464
  0
ARC
  5
321
330
1F
100
AcDbEntity
  8
1
  6
Continuous
 62
     7
370
    30
100
AcDbCircle
 10
348.9422454819271
 20
907.9700071952082
 30
0.0
 40
38.94988721726897
100
AcDbArc
 50
39.45285077789719
 51
90.51405581180381
  0
ARC
  5
322
330
1F
100
AcDbEntity
  8
1
  6
Continuous
 62
     7
370
    30
100
AcDbCircle
 10
311.0556670930881
 20
874.2324510381114
 30
0.0
 40
89.66398613552371
100
AcDbArc
 50
319.4777507478531
 51
40.71538255305694
  0
ARC
  5
323
330
1F
100
AcDbEntity
  8
1
  6
Continuous
 62
     7
370
    30
100
AcDbCircle
 10
348.7736757068809
 20
841.9096165257522
 30
0.0
 40
39.99100735581027
100
AcDbArc
 50
270.1031027421583
 51
319.5684416702831
  0
LINE
  5
324
330
1F
100
AcDbEntity
  8
1
  6
Continuous
 62
     7
370
    30
100
AcDbLine
 10
241.0859036656809
 20
801.7418525715675
 30
0.0
 11
348.8456387820571
 21
801.9186739181031
 31
0.0
  0
LINE
  5
325
330
1F
100
AcDbEntity
  8
1
  6
Continuous
 62
     7
370
    30
100
AcDbLine
 10
348.8196210041302
 20
946.9096740195686
 30
0.0
 11
240.2357869917051
 21
946.4458535966413
 31
0.0
  0
MTEXT
  5
326
330
1F
100
AcDbEntity
  8
1
  6
Continuous
 62
     7
370
     9
100
AcDbMText
 10
648.690723627841
 20
134.5795938531911
 30
0.0
 40
20.0
 41
195.32242743356
 46
20.0
 71
     5
 72
     1
  1
{\fＭＳ 明朝;\W0.714286;（ＡＣＶ４Ｅ型）}
 11
0.9999899962140421
 21
-0.004472971254110065
 31
0.0
 73
     1
 44
1.0
1001
ACAD
1000
ACAD_MTEXT_DEFINED_HEIGHT_BEGIN
1070
    46
1040
20.0
1000
ACAD_MTEXT_DEFINED_HEIGHT_END
  0
MTEXT
  5
327
330
1F
100
AcDbEntity
  8
1
  6
Continuous
 62
     7
370
     9
100
AcDbMText
 10
645.898714227136
 20
154.5057867472171
 30
0.0
 40
16.0
 41
306.2076880175652
 46
16.0
 71
     5
 72
     1
  1
{\fＭＳ 明朝;\W0.714286;耐候型　エアーカットバルブ}
 11
0.9999997246921698
 21
-0.0007420347596568431
 31
0.0
 73
     1
 44
1.0
1001
ACAD
1000
ACAD_MTEXT_DEFINED_HEIGHT_BEGIN
1070
    46
1040
16.0
1000
ACAD_MTEXT_DEFINED_HEIGHT_END
  0
MTEXT
  5
328
330
1F
100
AcDbEntity
  8
1
  6
Continuous
 62
     7
370
     9
100
AcDbMText
 10
492.9745811104697
 20
893.2417505015176
 30
0.0
 40
10.8
 41
352.7229005415551
 46
10.8
 71
     7
 72
     1
  1
{\fＭＳ 明朝;\W0.714286;２．別紙「安全に関するご注意」を参照願います。}
 11
0.9999998219968795
 21
-0.0005966625590331124
 31
0.0
 73
     1
 44
1.0
1001
ACAD
1000
ACAD_MTEXT_DEFINED_HEIGHT_BEGIN
1070
    46
1040
10.8
1000
ACAD_MTEXT_DEFINED_HEIGHT_END
  0
MTEXT
  5
329
330
1F
100
AcDbEntity
  8
1
  6
Continuous
 62
     7
370
     9
100
AcDbMText
 10
386.0
 20
72.0
 30
0.0
 40
20.0
 41
236.1241215098979
 46
20.0
 71
     5
 72
     1
  1
{\fＭＳ 明朝;\W0.714286;東光器材株式会社}
 73
     1
 44
1.0
1001
ACAD
1000
ACAD_MTEXT_DEFINED_HEIGHT_BEGIN
1070
    46
1040
20.0
1000
ACAD_MTEXT_DEFINED_HEIGHT_END
  0
ENDSEC
  0
SECTION
  2
OBJECTS
  0
DICTIONARY
  5
C
330
0
100
AcDbDictionary
281
     1
  3
ACAD_DETAILVIEWSTYLE
350
331
  3
ACAD_GROUP
350
D
  3
ACAD_LAYOUT
350
1A
  3
ACAD_MATERIAL
350
43
  3
ACAD_MLEADERSTYLE
350
6B
  3
ACAD_MLINESTYLE
350
17
  3
ACAD_PLOTSETTINGS
350
19
  3
ACAD_PLOTSTYLENAME
350
E
  3
ACAD_SCALELIST
350
47
  3
ACAD_SECTIONVIEWSTYLE
350
332
  3
ACAD_TABLESTYLE
350
69
  3
ACAD_VISUALSTYLE
350
2A
  3
ACDB_RECOMPOSE_DATA
350
32E
  3
AcDbVariableDictionary
350
32A
  0
SUN
  5
6D
330
29
100
AcDbSun
 90
        1
290
     0
 63
     7
421
 16777215
 40
1.0
291
     1
 91
  2455826
 92
 54000000
292
     0
 70
     2
 71
   256
280
     1
  0
DICTIONARY
  5
331
102
{ACAD_REACTORS
330
C
102
}
330
C
100
AcDbDictionary
281
     1
  0
DICTIONARY
  5
D
102
{ACAD_REACTORS
330
C
102
}
330
C
100
AcDbDictionary
281
     1
  0
DICTIONARY
  5
1A
102
{ACAD_REACTORS
330
C
102
}
330
C
100
AcDbDictionary
281
     1
  3
Layout1
350
1E
  3
Layout2
350
26
  3
Model
350
22
  0
DICTIONARY
  5
43
102
{ACAD_REACTORS
330
C
102
}
330
C
100
AcDbDictionary
281
     1
  3
ByBlock
350
45
  3
ByLayer
350
44
  3
Global
350
46
  0
DICTIONARY
  5
6B
102
{ACAD_REACTORS
330
C
102
}
330
C
100
AcDbDictionary
281
     1
  3
Standard
350
6C
  0
DICTIONARY
  5
17
102
{ACAD_REACTORS
330
C
102
}
330
C
100
AcDbDictionary
281
     1
  3
Standard
350
18
  0
DICTIONARY
  5
19
102
{ACAD_REACTORS
330
C
102
}
330
C
100
AcDbDictionary
281
     1
  0
ACDBDICTIONARYWDFLT
  5
E
102
{ACAD_REACTORS
330
C
102
}
330
C
100
AcDbDictionary
281
     1
  3
Normal
350
F
100
AcDbDictionaryWithDefault
340
F
  0
DICTIONARY
  5
47
102
{ACAD_REACTORS
330
C
102
}
330
C
100
AcDbDictionary
281
     1
  3
A0
350
48
  3
A1
350
49
  3
A2
350
4A
  3
A3
350
4B
  3
A4
350
4C
  3
A5
350
4D
  3
A6
350
4E
  3
A7
350
4F
  3
A8
350
50
  3
A9
350
51
  3
B0
350
52
  3
B1
350
53
  3
B2
350
54
  3
B3
350
55
  3
B4
350
56
  3
B5
350
57
  3
B6
350
58
  3
B7
350
59
  3
B8
350
5A
  3
B9
350
5B
  3
C0
350
5C
  3
C1
350
5D
  3
C2
350
5E
  3
C3
350
5F
  3
C4
350
60
  3
C5
350
61
  3
C6
350
62
  3
C7
350
63
  3
C8
350
64
  3
C9
350
65
  3
D0
350
66
  3
D1
350
67
  3
D2
350
68
  0
DICTIONARY
  5
332
102
{ACAD_REACTORS
330
C
102
}
330
C
100
AcDbDictionary
281
     1
  0
DICTIONARY
  5
69
102
{ACAD_REACTORS
330
C
102
}
330
C
100
AcDbDictionary
281
     1
  3
Standard
350
6A
  0
DICTIONARY
  5
2A
102
{ACAD_REACTORS
330
C
102
}
330
C
100
AcDbDictionary
281
     1
  3
2dWireframe
350
2F
  3
Basic
350
32
  3
Brighten
350
36
  3
ColorChange
350
3A
  3
Conceptual
350
34
  3
Dim
350
35
  3
EdgeColorOff
350
3D
  3
Facepattern
350
39
  3
Flat
350
2B
  3
FlatWithEdges
350
2C
  3
Gouraud
350
2D
  3
GouraudWithEdges
350
2E
  3
Hidden
350
31
  3
JitterOff
350
3B
  3
Linepattern
350
38
  3
OverhangOff
350
3C
  3
Realistic
350
33
  3
Shaded
350
42
  3
Shaded with edges
350
41
  3
Shades of Gray
350
3E
  3
Sketchy
350
3F
  3
Thicken
350
37
  3
Wireframe
350
30
  3
X-Ray
350
40
  0
XRECORD
  5
32E
102
{ACAD_REACTORS
330
C
102
}
330
C
100
AcDbXrecord
280
     1
 90
        1
330
6A
  0
DICTIONARY
  5
32A
102
{ACAD_REACTORS
330
C
102
}
330
C
100
AcDbDictionary
281
     1
  3
CANNOSCALE
350
32B
  3
CMLEADERSTYLE
350
330
  3
CTABLESTYLE
350
32F
  0
LAYOUT
  5
1E
102
{ACAD_REACTORS
330
1A
102
}
330
1A
100
AcDbPlotSettings
  1

  2
none_device
  4

  6

 40
0.0
 41
0.0
 42
0.0
 43
0.0
 44
0.0
 45
0.0
 46
0.0
 47
0.0
 48
0.0
 49
0.0
140
0.0
141
0.0
142
1.0
143
1.0
 70
   688
 72
     0
 73
     0
 74
     5
  7

 75
    16
 76
     0
 77
     2
 78
   300
147
1.0
148
0.0
149
0.0
100
AcDbLayout
  1
Layout1
 70
     1
 71
     1
 10
0.0
 20
0.0
 11
210.0
 21
297.0
 12
0.0
 22
0.0
 32
0.0
 14
0.0
 24
0.0
 34
0.0
 15
210.0
 25
297.0
 35
0.0
146
0.0
 13
0.0
 23
0.0
 33
0.0
 16
1.0
 26
0.0
 36
0.0
 17
0.0
 27
1.0
 37
0.0
 76
     0
330
1B
  0
LAYOUT
  5
26
102
{ACAD_REACTORS
330
1A
102
}
330
1A
100
AcDbPlotSettings
  1

  2
none_device
  4

  6

 40
0.0
 41
0.0
 42
0.0
 43
0.0
 44
0.0
 45
0.0
 46
0.0
 47
0.0
 48
0.0
 49
0.0
140
0.0
141
0.0
142
1.0
143
1.0
 70
   688
 72
     0
 73
     0
 74
     5
  7

 75
    16
 76
     0
 77
     2
 78
   300
147
1.0
148
0.0
149
0.0
100
AcDbLayout
  1
Layout2
 70
     1
 71
     2
 10
0.0
 20
0.0
 11
0.0
 21
0.0
 12
0.0
 22
0.0
 32
0.0
 14
0.0
 24
0.0
 34
0.0
 15
0.0
 25
0.0
 35
0.0
146
0.0
 13
0.0
 23
0.0
 33
0.0
 16
1.0
 26
0.0
 36
0.0
 17
0.0
 27
1.0
 37
0.0
 76
     0
330
23
  0
LAYOUT
  5
22
102
{ACAD_REACTORS
330
1A
102
}
330
1A
100
AcDbPlotSettings
  1

  2
none_device
  4
Letter_(8.50_x_11.00_Inches)
  6

 40
6.35
 41
6.35
 42
6.35000508
 43
6.35000508
 44
215.9
 45
279.4
 46
0.0
 47
0.0
 48
0.0
 49
0.0
140
0.0
141
0.0
142
1.0
143
1.0
 70
  1712
 72
     0
 73
     0
 74
     0
  7

 75
     0
 76
     0
 77
     2
 78
   300
147
1.0
148
0.0
149
0.0
100
AcDbLayout
  1
Model
 70
     1
 71
     0
 10
0.0
 20
0.0
 11
210.0
 21
297.0
 12
0.0
 22
0.0
 32
0.0
 14
0.0
 24
0.0
 34
0.0
 15
800.0
 25
1148.0
 35
0.0
146
0.0
 13
0.0
 23
0.0
 33
0.0
 16
1.0
 26
0.0
 36
0.0
 17
0.0
 27
1.0
 37
0.0
 76
     0
330
1F
331
29
  0
MATERIAL
  5
45
102
{ACAD_REACTORS
330
43
102
}
330
43
100
AcDbMaterial
  1
ByBlock
 72
     1
 94
      127
  0
MATERIAL
  5
44
102
{ACAD_REACTORS
330
43
102
}
330
43
100
AcDbMaterial
  1
ByLayer
 72
     1
 94
      127
  0
MATERIAL
  5
46
102
{ACAD_REACTORS
330
43
102
}
330
43
100
AcDbMaterial
  1
Global
 72
     1
 94
      127
  0
MLEADERSTYLE
  5
6C
102
{ACAD_REACTORS
330
6B
102
}
330
6B
100
AcDbMLeaderStyle
179
     2
170
     2
171
     1
172
     0
 90
        2
 40
0.0
 41
0.0
173
     1
 91
-1056964608
340
14
 92
       -2
290
     1
 42
0.09
291
     1
 43
0.36
  3
Standard
341
0
 44
0.18
300

342
11
174
     1
178
     6
175
     1
176
     0
 93
-1056964608
 45
0.18
292
     0
297
     0
 46
0.18
343
0
 94
-1056964608
 47
1.0
 49
1.0
140
1.0
293
     1
141
0.0
294
     1
177
     0
142
1.0
295
     0
296
     0
143
0.125
271
     0
272
     9
273
     9
298
     0
  0
MLINESTYLE
  5
18
102
{ACAD_REACTORS
330
17
102
}
330
17
100
AcDbMlineStyle
  2
Standard
 70
     0
  3

 62
   256
 51
90.0
 52
90.0
 71
     2
 49
0.5
 62
   256
  6
BYLAYER
 49
-0.5
 62
   256
  6
BYLAYER
  0
ACDBPLACEHOLDER
  5
F
102
{ACAD_REACTORS
330
E
102
}
330
E
  0
SCALE
  5
48
102
{ACAD_REACTORS
330
47
102
}
330
47
100
AcDbScale
 70
     0
300
1:1
140
1.0
141
1.0
290
     1
  0
SCALE
  5
49
102
{ACAD_REACTORS
330
47
102
}
330
47
100
AcDbScale
 70
     0
300
1:2
140
1.0
141
2.0
290
     0
  0
SCALE
  5
4A
102
{ACAD_REACTORS
330
47
102
}
330
47
100
AcDbScale
 70
     0
300
1:4
140
1.0
141
4.0
290
     0
  0
SCALE
  5
4B
102
{ACAD_REACTORS
330
47
102
}
330
47
100
AcDbScale
 70
     0
300
1:5
140
1.0
141
5.0
290
     0
  0
SCALE
  5
4C
102
{ACAD_REACTORS
330
47
102
}
330
47
100
AcDbScale
 70
     0
300
1:8
140
1.0
141
8.0
290
     0
  0
SCALE
  5
4D
102
{ACAD_REACTORS
330
47
102
}
330
47
100
AcDbScale
 70
     0
300
1:10
140
1.0
141
10.0
290
     0
  0
SCALE
  5
4E
102
{ACAD_REACTORS
330
47
102
}
330
47
100
AcDbScale
 70
     0
300
1:16
140
1.0
141
16.0
290
     0
  0
SCALE
  5
4F
102
{ACAD_REACTORS
330
47
102
}
330
47
100
AcDbScale
 70
     0
300
1:20
140
1.0
141
20.0
290
     0
  0
SCALE
  5
50
102
{ACAD_REACTORS
330
47
102
}
330
47
100
AcDbScale
 70
     0
300
1:30
140
1.0
141
30.0
290
     0
  0
SCALE
  5
51
102
{ACAD_REACTORS
330
47
102
}
330
47
100
AcDbScale
 70
     0
300
1:40
140
1.0
141
40.0
290
     0
  0
SCALE
  5
52
102
{ACAD_REACTORS
330
47
102
}
330
47
100
AcDbScale
 70
     0
300
1:50
140
1.0
141
50.0
290
     0
  0
SCALE
  5
53
102
{ACAD_REACTORS
330
47
102
}
330
47
100
AcDbScale
 70
     0
300
1:100
140
1.0
141
100.0
290
     0
  0
SCALE
  5
54
102
{ACAD_REACTORS
330
47
102
}
330
47
100
AcDbScale
 70
     0
300
2:1
140
2.0
141
1.0
290
     0
  0
SCALE
  5
55
102
{ACAD_REACTORS
330
47
102
}
330
47
100
AcDbScale
 70
     0
300
4:1
140
4.0
141
1.0
290
     0
  0
SCALE
  5
56
102
{ACAD_REACTORS
330
47
102
}
330
47
100
AcDbScale
 70
     0
300
8:1
140
8.0
141
1.0
290
     0
  0
SCALE
  5
57
102
{ACAD_REACTORS
330
47
102
}
330
47
100
AcDbScale
 70
     0
300
10:1
140
10.0
141
1.0
290
     0
  0
SCALE
  5
58
102
{ACAD_REACTORS
330
47
102
}
330
47
100
AcDbScale
 70
     0
300
100:1
140
100.0
141
1.0
290
     0
  0
SCALE
  5
59
102
{ACAD_REACTORS
330
47
102
}
330
47
100
AcDbScale
 70
     0
300
1/128" = 1'-0"
140
0.0078125
141
12.0
290
     0
  0
SCALE
  5
5A
102
{ACAD_REACTORS
330
47
102
}
330
47
100
AcDbScale
 70
     0
300
1/64" = 1'-0"
140
0.015625
141
12.0
290
     0
  0
SCALE
  5
5B
102
{ACAD_REACTORS
330
47
102
}
330
47
100
AcDbScale
 70
     0
300
1/32" = 1'-0"
140
0.03125
141
12.0
290
     0
  0
SCALE
  5
5C
102
{ACAD_REACTORS
330
47
102
}
330
47
100
AcDbScale
 70
     0
300
1/16" = 1'-0"
140
0.0625
141
12.0
290
     0
  0
SCALE
  5
5D
102
{ACAD_REACTORS
330
47
102
}
330
47
100
AcDbScale
 70
     0
300
3/32" = 1'-0"
140
0.09375
141
12.0
290
     0
  0
SCALE
  5
5E
102
{ACAD_REACTORS
330
47
102
}
330
47
100
AcDbScale
 70
     0
300
1/8" = 1'-0"
140
0.125
141
12.0
290
     0
  0
SCALE
  5
5F
102
{ACAD_REACTORS
330
47
102
}
330
47
100
AcDbScale
 70
     0
300
3/16" = 1'-0"
140
0.1875
141
12.0
290
     0
  0
SCALE
  5
60
102
{ACAD_REACTORS
330
47
102
}
330
47
100
AcDbScale
 70
     0
300
1/4" = 1'-0"
140
0.25
141
12.0
290
     0
  0
SCALE
  5
61
102
{ACAD_REACTORS
330
47
102
}
330
47
100
AcDbScale
 70
     0
300
3/8" = 1'-0"
140
0.375
141
12.0
290
     0
  0
SCALE
  5
62
102
{ACAD_REACTORS
330
47
102
}
330
47
100
AcDbScale
 70
     0
300
1/2" = 1'-0"
140
0.5
141
12.0
290
     0
  0
SCALE
  5
63
102
{ACAD_REACTORS
330
47
102
}
330
47
100
AcDbScale
 70
     0
300
3/4" = 1'-0"
140
0.75
141
12.0
290
     0
  0
SCALE
  5
64
102
{ACAD_REACTORS
330
47
102
}
330
47
100
AcDbScale
 70
     0
300
1" = 1'-0"
140
1.0
141
12.0
290
     0
  0
SCALE
  5
65
102
{ACAD_REACTORS
330
47
102
}
330
47
100
AcDbScale
 70
     0
300
1-1/2" = 1'-0"
140
1.5
141
12.0
290
     0
  0
SCALE
  5
66
102
{ACAD_REACTORS
330
47
102
}
330
47
100
AcDbScale
 70
     0
300
3" = 1'-0"
140
3.0
141
12.0
290
     0
  0
SCALE
  5
67
102
{ACAD_REACTORS
330
47
102
}
330
47
100
AcDbScale
 70
     0
300
6" = 1'-0"
140
6.0
141
12.0
290
     0
  0
SCALE
  5
68
102
{ACAD_REACTORS
330
47
102
}
330
47
100
AcDbScale
 70
     0
300
1'-0" = 1'-0"
140
12.0
141
12.0
290
     0
  0
TABLESTYLE
  5
6A
102
{ACAD_REACTORS
330
69
102
}
102
{ACAD_XDICTIONARY
360
32C
102
}
330
69
100
AcDbTableStyle
  3
Standard
 70
     0
 71
     0
 40
0.06
 41
0.06
280
     0
281
     0
  7
Standard
140
0.18
170
     2
 62
     0
 63
   257
283
     0
 90
        4
 91
        0
  1

274
    -2
284
     1
 64
     0
275
    -2
285
     1
 65
     0
276
    -2
286
     1
 66
     0
277
    -2
287
     1
 67
     0
278
    -2
288
     1
 68
     0
279
    -2
289
     1
 69
     0
  7
Standard
140
0.25
170
     5
 62
     0
 63
   257
283
     0
 90
        4
 91
        0
  1

274
    -2
284
     1
 64
     0
275
    -2
285
     1
 65
     0
276
    -2
286
     1
 66
     0
277
    -2
287
     1
 67
     0
278
    -2
288
     1
 68
     0
279
    -2
289
     1
 69
     0
  7
Standard
140
0.18
170
     5
 62
     0
 63
   257
283
     0
 90
        4
 91
        0
  1

274
    -2
284
     1
 64
     0
275
    -2
285
     1
 65
     0
276
    -2
286
     1
 66
     0
277
    -2
287
     1
 67
     0
278
    -2
288
     1
 68
     0
279
    -2
289
     1
 69
     0
  0
VISUALSTYLE
  5
2F
102
{ACAD_REACTORS
330
2A
102
}
330
2A
100
AcDbVisualStyle
  2
2dWireframe
 70
     4
177
     3
291
     0
 70
    58
 90
        0
176
     1
 90
        2
176
     1
 90
        0
176
     1
 90
        0
176
     1
 40
0.6
176
     1
 40
30.0
176
     1
 62
     7
420
 16777215
176
     1
 90
        1
176
     1
 90
        4
176
     1
 62
     7
176
     1
 62
   257
176
     1
 90
        1
176
     1
 90
        1
176
     1
 40
1.0
176
     1
 90
        0
176
     1
 62
   257
176
     1
 40
1.0
176
     1
 90
        1
176
     1
 90
        6
176
     1
 90
        2
176
     1
 62
     7
176
     1
 90
        5
176
     1
 90
        0
176
     1
 90
        0
176
     1
290
     0
176
     1
 90
        1
176
     1
 40
0.0
176
     1
 90
        0
176
     1
290
     1
176
     1
290
     1
176
     1
290
     0
176
     1
290
     0
176
     1
290
     0
176
     1
290
     0
176
     1
290
     0
176
     1
290
     0
176
     1
290
     0
176
     1
 90
       50
176
     1
 40
0.0
176
     1
 40
1.0
176
     1
 90
        0
176
     1
 62
    18
420
        0
176
     1
 90
       50
176
     1
 90
        3
176
     1
 62
     5
420
      255
176
     1
290
     0
176
     1
 90
       50
176
     1
 90
       50
176
     1
 90
       50
176
     1
290
     0
176
     1
 90
       50
176
     1
 62
   256
176
     0
 40
1.0
176
     0
 90
        2
176
     1
  1
strokes_ogs.tif
176
     1
290
     0
176
     1
 40
1.0
176
     1
 40
1.0
176
     1
  0
VISUALSTYLE
  5
32
102
{ACAD_REACTORS
330
2A
102
}
330
2A
100
AcDbVisualStyle
  2
Basic
 70
     7
177
     3
291
     1
 70
    58
 90
        1
176
     1
 90
        0
176
     1
 90
        1
176
     1
 90
        0
176
     1
 40
0.6
176
     1
 40
30.0
176
     1
 62
     7
420
 16777215
176
     1
 90
        0
176
     1
 90
        4
176
     1
 62
     7
176
     1
 62
   257
176
     1
 90
        1
176
     1
 90
        1
176
     1
 40
1.0
176
     1
 90
        8
176
     1
 62
     7
176
     1
 40
1.0
176
     1
 90
        1
176
     1
 90
        6
176
     1
 90
        2
176
     1
 62
     7
176
     1
 90
        5
176
     1
 90
        0
176
     1
 90
        0
176
     1
290
     0
176
     1
 90
        1
176
     1
 40
0.0
176
     1
 90
        0
176
     1
290
     0
176
     1
290
     1
176
     1
290
     1
176
     1
290
     0
176
     1
290
     0
176
     1
290
     0
176
     1
290
     0
176
     1
290
     0
176
     1
290
     0
176
     1
 90
       50
176
     1
 40
0.0
176
     1
 40
1.0
176
     1
 90
        0
176
     1
 62
    18
420
        0
176
     1
 90
       50
176
     1
 90
        3
176
     1
 62
     5
420
      255
176
     1
290
     0
176
     1
 90
       50
176
     1
 90
       50
176
     1
 90
       50
176
     1
290
     0
176
     1
 90
       50
176
     1
 62
   256
176
     0
 40
1.0
176
     0
 90
        2
176
     1
  1
strokes_ogs.tif
176
     1
290
     0
176
     1
 40
1.0
176
     1
 40
1.0
176
     1
  0
VISUALSTYLE
  5
36
102
{ACAD_REACTORS
330
2A
102
}
330
2A
100
AcDbVisualStyle
  2
Brighten
 70
    12
177
     3
291
     1
 70
    58
 90
        2
176
     1
 90
        2
176
     1
 90
        0
176
     1
 90
        0
176
     1
 40
0.6
176
     1
 40
30.0
176
     1
 62
     7
420
 16777215
176
     1
 90
        1
176
     1
 90
        4
176
     1
 62
     7
176
     1
 62
   257
176
     1
 90
        1
176
     1
 90
        1
176
     1
 40
1.0
176
     1
 90
        8
176
     1
 62
     7
176
     1
 40
1.0
176
     1
 90
        1
176
     1
 90
        6
176
     1
 90
        2
176
     1
 62
     7
176
     1
 90
        5
176
     1
 90
        0
176
     1
 90
        0
176
     1
290
     0
176
     1
 90
        1
176
     1
 40
50.0
176
     1
 90
        0
176
     1
290
     0
176
     1
290
     1
176
     1
290
     1
176
     1
290
     0
176
     1
290
     0
176
     1
290
     0
176
     1
290
     0
176
     1
290
     0
176
     1
290
     0
176
     1
 90
       50
176
     1
 40
0.0
176
     1
 40
1.0
176
     1
 90
        0
176
     1
 62
    18
420
        0
176
     1
 90
       50
176
     1
 90
        3
176
     1
 62
     5
420
      255
176
     1
290
     0
176
     1
 90
       50
176
     1
 90
       50
176
     1
 90
       50
176
     1
290
     0
176
     1
 90
       50
176
     1
 62
   256
176
     0
 40
1.0
176
     0
 90
        2
176
     1
  1
strokes_ogs.tif
176
     1
290
     0
176
     1
 40
1.0
176
     1
 40
1.0
176
     1
  0
VISUALSTYLE
  5
3A
102
{ACAD_REACTORS
330
2A
102
}
330
2A
100
AcDbVisualStyle
  2
ColorChange
 70
    16
177
     3
291
     1
 70
    58
 90
        2
176
     1
 90
        2
176
     1
 90
        3
176
     1
 90
        0
176
     1
 40
0.6
176
     1
 40
30.0
176
     1
 62
     8
420
  8421504
176
     1
 90
        1
176
     1
 90
        4
176
     1
 62
     7
176
     1
 62
   257
176
     1
 90
        1
176
     1
 90
        1
176
     1
 40
1.0
176
     1
 90
        8
176
     1
 62
     8
420
  8421504
176
     1
 40
1.0
176
     1
 90
        1
176
     1
 90
        6
176
     1
 90
        2
176
     1
 62
     7
176
     1
 90
        5
176
     1
 90
        0
176
     1
 90
        0
176
     1
290
     0
176
     1
 90
        1
176
     1
 40
0.0
176
     1
 90
        0
176
     1
290
     0
176
     1
290
     1
176
     1
290
     1
176
     1
290
     0
176
     1
290
     0
176
     1
290
     0
176
     1
290
     0
176
     1
290
     0
176
     1
290
     0
176
     1
 90
       50
176
     1
 40
0.0
176
     1
 40
1.0
176
     1
 90
        0
176
     1
 62
    18
420
        0
176
     1
 90
       50
176
     1
 90
        3
176
     1
 62
     5
420
      255
176
     1
290
     0
176
     1
 90
       50
176
     1
 90
       50
176
     1
 90
       50
176
     1
290
     0
176
     1
 90
       50
176
     1
 62
   256
176
     0
 40
1.0
176
     0
 90
        2
176
     1
  1
strokes_ogs.tif
176
     1
290
     0
176
     1
 40
1.0
176
     1
 40
1.0
176
     1
  0
VISUALSTYLE
  5
34
102
{ACAD_REACTORS
330
2A
102
}
330
2A
100
AcDbVisualStyle
  2
Conceptual
 70
     9
177
     3
291
     0
 70
    58
 90
        3
176
     1
 90
        2
176
     1
 90
        0
176
     1
 90
        0
176
     1
 40
0.6
176
     1
 40
30.0
176
     1
 62
     7
420
 16777215
176
     1
 90
        2
176
     1
 90
        2
176
     1
 62
     7
176
     1
 62
   257
176
     1
 90
        1
176
     1
 90
        1
176
     1
 40
179.0
176
     1
 90
        8
176
     1
 62
     7
176
     1
 40
1.0
176
     1
 90
        1
176
     1
 90
        6
176
     1
 90
        2
176
     1
 62
     7
176
     1
 90
        3
176
     1
 90
        0
176
     1
 90
        0
176
     1
290
     0
176
     1
 90
        1
176
     1
 40
0.0
176
     1
 90
        0
176
     1
290
     0
176
     1
290
     1
176
     1
290
     1
176
     1
290
     0
176
     1
290
     0
176
     1
290
     0
176
     1
290
     0
176
     1
290
     0
176
     1
290
     0
176
     1
 90
       50
176
     1
 40
0.0
176
     1
 40
1.0
176
     1
 90
        0
176
     1
 62
    18
420
        0
176
     1
 90
       50
176
     1
 90
        3
176
     1
 62
     5
420
      255
176
     1
290
     0
176
     1
 90
       50
176
     1
 90
       50
176
     1
 90
       50
176
     1
290
     0
176
     1
 90
       50
176
     1
 62
   256
176
     0
 40
1.0
176
     0
 90
        2
176
     1
  1
strokes_ogs.tif
176
     1
290
     0
176
     1
 40
1.0
176
     1
 40
1.0
176
     1
  0
VISUALSTYLE
  5
35
102
{ACAD_REACTORS
330
2A
102
}
330
2A
100
AcDbVisualStyle
  2
Dim
 70
    11
177
     3
291
     1
 70
    58
 90
        2
176
     1
 90
        2
176
     1
 90
        0
176
     1
 90
        0
176
     1
 40
0.6
176
     1
 40
30.0
176
     1
 62
     7
420
 16777215
176
     1
 90
        1
176
     1
 90
        4
176
     1
 62
     7
176
     1
 62
   257
176
     1
 90
        1
176
     1
 90
        1
176
     1
 40
1.0
176
     1
 90
        8
176
     1
 62
     7
176
     1
 40
1.0
176
     1
 90
        1
176
     1
 90
        6
176
     1
 90
        2
176
     1
 62
     7
176
     1
 90
        5
176
     1
 90
        0
176
     1
 90
        0
176
     1
290
     0
176
     1
 90
        1
176
     1
 40
-50.0
176
     1
 90
        0
176
     1
290
     0
176
     1
290
     1
176
     1
290
     1
176
     1
290
     0
176
     1
290
     0
176
     1
290
     0
176
     1
290
     0
176
     1
290
     0
176
     1
290
     0
176
     1
 90
       50
176
     1
 40
0.0
176
     1
 40
1.0
176
     1
 90
        0
176
     1
 62
    18
420
        0
176
     1
 90
       50
176
     1
 90
        3
176
     1
 62
     5
420
      255
176
     1
290
     0
176
     1
 90
       50
176
     1
 90
       50
176
     1
 90
       50
176
     1
290
     0
176
     1
 90
       50
176
     1
 62
   256
176
     0
 40
1.0
176
     0
 90
        2
176
     1
  1
strokes_ogs.tif
176
     1
290
     0
176
     1
 40
1.0
176
     1
 40
1.0
176
     1
  0
VISUALSTYLE
  5
3D
102
{ACAD_REACTORS
330
2A
102
}
330
2A
100
AcDbVisualStyle
  2
EdgeColorOff
 70
    22
177
     3
291
     1
 70
    58
 90
        2
176
     0
 90
        2
176
     0
 90
        0
176
     0
 90
        0
176
     0
 40
0.6
176
     0
 40
30.0
176
     0
 62
     7
420
 16777215
176
     0
 90
        1
176
     0
 90
        4
176
     0
 62
     7
176
     0
 62
   257
176
     0
 90
        1
176
     0
 90
        1
176
     0
 40
1.0
176
     0
 90
        8
176
     2
 62
     7
176
     0
 40
1.0
176
     0
 90
        1
176
     0
 90
        6
176
     0
 90
        2
176
     0
 62
     7
176
     0
 90
        5
176
     0
 90
        0
176
     0
 90
        0
176
     0
290
     0
176
     0
 90
        1
176
     0
 40
0.0
176
     0
 90
        0
176
     0
290
     0
176
     0
290
     1
176
     0
290
     1
176
     0
290
     0
176
     0
290
     0
176
     0
290
     0
176
     0
290
     0
176
     0
290
     0
176
     0
290
     0
176
     0
 90
       50
176
     0
 40
0.0
176
     0
 40
1.0
176
     0
 90
        0
176
     0
 62
    18
420
        0
176
     0
 90
       50
176
     0
 90
        3
176
     0
 62
     5
420
      255
176
     0
290
     0
176
     0
 90
       50
176
     0
 90
       50
176
     0
 90
       50
176
     0
290
     0
176
     0
 90
       50
176
     0
 62
   256
176
     0
 40
1.0
176
     0
 90
        2
176
     0
  1
strokes_ogs.tif
176
     0
290
     0
176
     0
 40
1.0
176
     0
 40
1.0
176
     0
  0
VISUALSTYLE
  5
39
102
{ACAD_REACTORS
330
2A
102
}
330
2A
100
AcDbVisualStyle
  2
Facepattern
 70
    15
177
     3
291
     1
 70
    58
 90
        2
176
     1
 90
        2
176
     1
 90
        0
176
     1
 90
        0
176
     1
 40
0.6
176
     1
 40
30.0
176
     1
 62
     7
420
 16777215
176
     1
 90
        1
176
     1
 90
        4
176
     1
 62
     7
176
     1
 62
   257
176
     1
 90
        1
176
     1
 90
        1
176
     1
 40
1.0
176
     1
 90
        8
176
     1
 62
     7
176
     1
 40
1.0
176
     1
 90
        1
176
     1
 90
        6
176
     1
 90
        2
176
     1
 62
     7
176
     1
 90
        5
176
     1
 90
        0
176
     1
 90
        0
176
     1
290
     0
176
     1
 90
        1
176
     1
 40
0.0
176
     1
 90
        0
176
     1
290
     0
176
     1
290
     1
176
     1
290
     1
176
     1
290
     0
176
     1
290
     0
176
     1
290
     0
176
     1
290
     0
176
     1
290
     0
176
     1
290
     0
176
     1
 90
       50
176
     1
 40
0.0
176
     1
 40
1.0
176
     1
 90
        0
176
     1
 62
    18
420
        0
176
     1
 90
       50
176
     1
 90
        3
176
     1
 62
     5
420
      255
176
     1
290
     0
176
     1
 90
       50
176
     1
 90
       50
176
     1
 90
       50
176
     1
290
     0
176
     1
 90
       50
176
     1
 62
   256
176
     0
 40
1.0
176
     0
 90
        2
176
     1
  1
strokes_ogs.tif
176
     1
290
     0
176
     1
 40
1.0
176
     1
 40
1.0
176
     1
  0
VISUALSTYLE
  5
2B
102
{ACAD_REACTORS
330
2A
102
}
330
2A
100
AcDbVisualStyle
  2
Flat
 70
     0
177
     3
291
     1
 70
    58
 90
        2
176
     1
 90
        1
176
     1
 90
        1
176
     1
 90
        2
176
     1
 40
0.6
176
     1
 40
30.0
176
     1
 62
     7
420
 16777215
176
     1
 90
        0
176
     1
 90
        0
176
     1
 62
     7
176
     1
 62
   257
176
     1
 90
        1
176
     1
 90
        1
176
     1
 40
1.0
176
     1
 90
        8
176
     1
 62
     7
176
     1
 40
1.0
176
     1
 90
        1
176
     1
 90
        6
176
     1
 90
        2
176
     1
 62
     7
176
     1
 90
        5
176
     1
 90
        0
176
     1
 90
        0
176
     1
290
     0
176
     1
 90
       13
176
     1
 40
0.0
176
     1
 90
        0
176
     1
290
     0
176
     1
290
     1
176
     1
290
     1
176
     1
290
     0
176
     1
290
     0
176
     1
290
     0
176
     1
290
     0
176
     1
290
     0
176
     1
290
     0
176
     1
 90
       50
176
     1
 40
0.0
176
     1
 40
1.0
176
     1
 90
        0
176
     1
 62
    18
420
        0
176
     1
 90
       50
176
     1
 90
        3
176
     1
 62
     5
420
      255
176
     1
290
     0
176
     1
 90
       50
176
     1
 90
       50
176
     1
 90
       50
176
     1
290
     0
176
     1
 90
       50
176
     1
 62
   256
176
     0
 40
1.0
176
     0
 90
        2
176
     1
  1
strokes_ogs.tif
176
     1
290
     0
176
     1
 40
1.0
176
     1
 40
1.0
176
     1
  0
VISUALSTYLE
  5
2C
102
{ACAD_REACTORS
330
2A
102
}
330
2A
100
AcDbVisualStyle
  2
FlatWithEdges
 70
     1
177
     3
291
     1
 70
    58
 90
        2
176
     1
 90
        1
176
     1
 90
        1
176
     1
 90
        2
176
     1
 40
0.6
176
     1
 40
30.0
176
     1
 62
     7
420
 16777215
176
     1
 90
        1
176
     1
 90
        0
176
     1
 62
     7
176
     1
 62
   257
176
     1
 90
        1
176
     1
 90
        1
176
     1
 40
1.0
176
     1
 90
        0
176
     1
 62
   257
176
     1
 40
1.0
176
     1
 90
        1
176
     1
 90
        6
176
     1
 90
        2
176
     1
 62
     7
176
     1
 90
        5
176
     1
 90
        0
176
     1
 90
        0
176
     1
290
     0
176
     1
 90
       13
176
     1
 40
0.0
176
     1
 90
        0
176
     1
290
     0
176
     1
290
     1
176
     1
290
     1
176
     1
290
     0
176
     1
290
     0
176
     1
290
     0
176
     1
290
     0
176
     1
290
     0
176
     1
290
     0
176
     1
 90
       50
176
     1
 40
0.0
176
     1
 40
1.0
176
     1
 90
        0
176
     1
 62
    18
420
        0
176
     1
 90
       50
176
     1
 90
        3
176
     1
 62
     5
420
      255
176
     1
290
     0
176
     1
 90
       50
176
     1
 90
       50
176
     1
 90
       50
176
     1
290
     0
176
     1
 90
       50
176
     1
 62
   256
176
     0
 40
1.0
176
     0
 90
        2
176
     1
  1
strokes_ogs.tif
176
     1
290
     0
176
     1
 40
1.0
176
     1
 40
1.0
176
     1
  0
VISUALSTYLE
  5
2D
102
{ACAD_REACTORS
330
2A
102
}
330
2A
100
AcDbVisualStyle
  2
Gouraud
 70
     2
177
     3
291
     1
 70
    58
 90
        2
176
     1
 90
        2
176
     1
 90
        1
176
     1
 90
        2
176
     1
 40
0.6
176
     1
 40
30.0
176
     1
 62
     7
420
 16777215
176
     1
 90
        0
176
     1
 90
        0
176
     1
 62
     7
176
     1
 62
   257
176
     1
 90
        1
176
     1
 90
        1
176
     1
 40
1.0
176
     1
 90
        0
176
     1
 62
     7
176
     1
 40
1.0
176
     1
 90
        1
176
     1
 90
        6
176
     1
 90
        2
176
     1
 62
     7
176
     1
 90
        5
176
     1
 90
        0
176
     1
 90
        0
176
     1
290
     0
176
     1
 90
       13
176
     1
 40
0.0
176
     1
 90
        0
176
     1
290
     0
176
     1
290
     1
176
     1
290
     1
176
     1
290
     0
176
     1
290
     0
176
     1
290
     0
176
     1
290
     0
176
     1
290
     0
176
     1
290
     0
176
     1
 90
       50
176
     1
 40
0.0
176
     1
 40
1.0
176
     1
 90
        0
176
     1
 62
    18
420
        0
176
     1
 90
       50
176
     1
 90
        3
176
     1
 62
     5
420
      255
176
     1
290
     0
176
     1
 90
       50
176
     1
 90
       50
176
     1
 90
       50
176
     1
290
     0
176
     1
 90
       50
176
     1
 62
   256
176
     0
 40
1.0
176
     0
 90
        2
176
     1
  1
strokes_ogs.tif
176
     1
290
     0
176
     1
 40
1.0
176
     1
 40
1.0
176
     1
  0
VISUALSTYLE
  5
2E
102
{ACAD_REACTORS
330
2A
102
}
330
2A
100
AcDbVisualStyle
  2
GouraudWithEdges
 70
     3
177
     3
291
     1
 70
    58
 90
        2
176
     1
 90
        2
176
     1
 90
        1
176
     1
 90
        2
176
     1
 40
0.6
176
     1
 40
30.0
176
     1
 62
     7
420
 16777215
176
     1
 90
        1
176
     1
 90
        0
176
     1
 62
     7
176
     1
 62
   257
176
     1
 90
        1
176
     1
 90
        1
176
     1
 40
1.0
176
     1
 90
        0
176
     1
 62
   257
176
     1
 40
1.0
176
     1
 90
        1
176
     1
 90
        6
176
     1
 90
        2
176
     1
 62
     7
176
     1
 90
        5
176
     1
 90
        0
176
     1
 90
        0
176
     1
290
     0
176
     1
 90
       13
176
     1
 40
0.0
176
     1
 90
        0
176
     1
290
     0
176
     1
290
     1
176
     1
290
     1
176
     1
290
     0
176
     1
290
     0
176
     1
290
     0
176
     1
290
     0
176
     1
290
     0
176
     1
290
     0
176
     1
 90
       50
176
     1
 40
0.0
176
     1
 40
1.0
176
     1
 90
        0
176
     1
 62
    18
420
        0
176
     1
 90
       50
176
     1
 90
        3
176
     1
 62
     5
420
      255
176
     1
290
     0
176
     1
 90
       50
176
     1
 90
       50
176
     1
 90
       50
176
     1
290
     0
176
     1
 90
       50
176
     1
 62
   256
176
     0
 40
1.0
176
     0
 90
        2
176
     1
  1
strokes_ogs.tif
176
     1
290
     0
176
     1
 40
1.0
176
     1
 40
1.0
176
     1
  0
VISUALSTYLE
  5
31
102
{ACAD_REACTORS
330
2A
102
}
330
2A
100
AcDbVisualStyle
  2
Hidden
 70
     6
177
     3
291
     0
 70
    58
 90
        1
176
     1
 90
        2
176
     1
 90
        2
176
     1
 90
        0
176
     1
 40
0.6
176
     1
 40
30.0
176
     1
 62
     7
420
 16777215
176
     1
 90
        2
176
     1
 90
        2
176
     1
 62
     7
176
     1
 62
   257
176
     1
 90
        2
176
     1
 90
        1
176
     1
 40
40.0
176
     1
 90
        0
176
     1
 62
   257
176
     1
 40
1.0
176
     1
 90
        1
176
     1
 90
        6
176
     1
 90
        2
176
     1
 62
     7
176
     1
 90
        3
176
     1
 90
        0
176
     1
 90
        0
176
     1
290
     0
176
     1
 90
        1
176
     1
 40
0.0
176
     1
 90
        0
176
     1
290
     0
176
     1
290
     1
176
     1
290
     1
176
     1
290
     0
176
     1
290
     0
176
     1
290
     0
176
     1
290
     0
176
     1
290
     0
176
     1
290
     0
176
     1
 90
       50
176
     1
 40
0.0
176
     1
 40
1.0
176
     1
 90
        0
176
     1
 62
    18
420
        0
176
     1
 90
       50
176
     1
 90
        3
176
     1
 62
     5
420
      255
176
     1
290
     0
176
     1
 90
       50
176
     1
 90
       50
176
     1
 90
       50
176
     1
290
     0
176
     1
 90
       50
176
     1
 62
   256
176
     0
 40
1.0
176
     0
 90
        2
176
     1
  1
strokes_ogs.tif
176
     1
290
     0
176
     1
 40
1.0
176
     1
 40
1.0
176
     1
  0
VISUALSTYLE
  5
3B
102
{ACAD_REACTORS
330
2A
102
}
330
2A
100
AcDbVisualStyle
  2
JitterOff
 70
    20
177
     3
291
     1
 70
    58
 90
        2
176
     0
 90
        2
176
     0
 90
        0
176
     0
 90
        0
176
     0
 40
0.6
176
     0
 40
30.0
176
     0
 62
     7
420
 16777215
176
     0
 90
        1
176
     0
 90
        4
176
     0
 62
     7
176
     0
 62
   257
176
     0
 90
        1
176
     0
 90
        1
176
     0
 40
1.0
176
     0
 90
       10
176
     2
 62
     7
176
     0
 40
1.0
176
     0
 90
        1
176
     0
 90
        6
176
     0
 90
        2
176
     0
 62
     7
176
     0
 90
        5
176
     0
 90
        0
176
     0
 90
        0
176
     0
290
     0
176
     0
 90
        1
176
     0
 40
0.0
176
     0
 90
        0
176
     0
290
     0
176
     0
290
     1
176
     0
290
     1
176
     0
290
     0
176
     0
290
     0
176
     0
290
     0
176
     0
290
     0
176
     0
290
     0
176
     0
290
     0
176
     0
 90
       50
176
     0
 40
0.0
176
     0
 40
1.0
176
     0
 90
        0
176
     0
 62
    18
420
        0
176
     0
 90
       50
176
     0
 90
        3
176
     0
 62
     5
420
      255
176
     0
290
     0
176
     0
 90
       50
176
     0
 90
       50
176
     0
 90
       50
176
     0
290
     0
176
     0
 90
       50
176
     0
 62
   256
176
     0
 40
1.0
176
     0
 90
        2
176
     0
  1
strokes_ogs.tif
176
     0
290
     0
176
     0
 40
1.0
176
     0
 40
1.0
176
     0
  0
VISUALSTYLE
  5
38
102
{ACAD_REACTORS
330
2A
102
}
330
2A
100
AcDbVisualStyle
  2
Linepattern
 70
    14
177
     3
291
     1
 70
    58
 90
        2
176
     1
 90
        2
176
     1
 90
        0
176
     1
 90
        0
176
     1
 40
0.6
176
     1
 40
30.0
176
     1
 62
     7
420
 16777215
176
     1
 90
        1
176
     1
 90
        4
176
     1
 62
     7
176
     1
 62
   257
176
     1
 90
        7
176
     1
 90
        7
176
     1
 40
1.0
176
     1
 90
        8
176
     1
 62
     7
176
     1
 40
1.0
176
     1
 90
        1
176
     1
 90
        6
176
     1
 90
        2
176
     1
 62
     7
176
     1
 90
        5
176
     1
 90
        0
176
     1
 90
        0
176
     1
290
     0
176
     1
 90
        1
176
     1
 40
0.0
176
     1
 90
        0
176
     1
290
     0
176
     1
290
     1
176
     1
290
     1
176
     1
290
     0
176
     1
290
     0
176
     1
290
     0
176
     1
290
     0
176
     1
290
     0
176
     1
290
     0
176
     1
 90
       50
176
     1
 40
0.0
176
     1
 40
1.0
176
     1
 90
        0
176
     1
 62
    18
420
        0
176
     1
 90
       50
176
     1
 90
        3
176
     1
 62
     5
420
      255
176
     1
290
     0
176
     1
 90
       50
176
     1
 90
       50
176
     1
 90
       50
176
     1
290
     0
176
     1
 90
       50
176
     1
 62
   256
176
     0
 40
1.0
176
     0
 90
        2
176
     1
  1
strokes_ogs.tif
176
     1
290
     0
176
     1
 40
1.0
176
     1
 40
1.0
176
     1
  0
VISUALSTYLE
  5
3C
102
{ACAD_REACTORS
330
2A
102
}
330
2A
100
AcDbVisualStyle
  2
OverhangOff
 70
    21
177
     3
291
     1
 70
    58
 90
        2
176
     0
 90
        2
176
     0
 90
        0
176
     0
 90
        0
176
     0
 40
0.6
176
     0
 40
30.0
176
     0
 62
     7
420
 16777215
176
     0
 90
        1
176
     0
 90
        4
176
     0
 62
     7
176
     0
 62
   257
176
     0
 90
        1
176
     0
 90
        1
176
     0
 40
1.0
176
     0
 90
        9
176
     2
 62
     7
176
     0
 40
1.0
176
     0
 90
        1
176
     0
 90
        6
176
     0
 90
        2
176
     0
 62
     7
176
     0
 90
        5
176
     0
 90
        0
176
     0
 90
        0
176
     0
290
     0
176
     0
 90
        1
176
     0
 40
0.0
176
     0
 90
        0
176
     0
290
     0
176
     0
290
     1
176
     0
290
     1
176
     0
290
     0
176
     0
290
     0
176
     0
290
     0
176
     0
290
     0
176
     0
290
     0
176
     0
290
     0
176
     0
 90
       50
176
     0
 40
0.0
176
     0
 40
1.0
176
     0
 90
        0
176
     0
 62
    18
420
        0
176
     0
 90
       50
176
     0
 90
        3
176
     0
 62
     5
420
      255
176
     0
290
     0
176
     0
 90
       50
176
     0
 90
       50
176
     0
 90
       50
176
     0
290
     0
176
     0
 90
       50
176
     0
 62
   256
176
     0
 40
1.0
176
     0
 90
        2
176
     0
  1
strokes_ogs.tif
176
     0
290
     0
176
     0
 40
1.0
176
     0
 40
1.0
176
     0
  0
VISUALSTYLE
  5
33
102
{ACAD_REACTORS
330
2A
102
}
330
2A
100
AcDbVisualStyle
  2
Realistic
 70
     8
177
     3
291
     0
 70
    58
 90
        2
176
     1
 90
        3
176
     1
 90
        0
176
     1
 90
        2
176
     1
 40
0.6
176
     1
 40
30.0
176
     1
 62
     7
420
 16777215
176
     1
 90
        0
176
     1
 90
        0
176
     1
 62
     7
176
     1
 62
   257
176
     1
 90
        1
176
     1
 90
        1
176
     1
 40
1.0
176
     1
 90
        8
176
     1
 62
   257
176
     1
 40
1.0
176
     1
 90
        1
176
     1
 90
        6
176
     1
 90
        2
176
     1
 62
     7
176
     1
 90
        3
176
     1
 90
        0
176
     1
 90
        0
176
     1
290
     0
176
     1
 90
       13
176
     1
 40
0.0
176
     1
 90
        0
176
     1
290
     0
176
     1
290
     1
176
     1
290
     1
176
     1
290
     0
176
     1
290
     0
176
     1
290
     0
176
     1
290
     0
176
     1
290
     0
176
     1
290
     0
176
     1
 90
       50
176
     1
 40
0.0
176
     1
 40
1.0
176
     1
 90
        0
176
     1
 62
    18
420
        0
176
     1
 90
       50
176
     1
 90
        3
176
     1
 62
     5
420
      255
176
     1
290
     0
176
     1
 90
       50
176
     1
 90
       50
176
     1
 90
       50
176
     1
290
     0
176
     1
 90
       50
176
     1
 62
   256
176
     0
 40
1.0
176
     0
 90
        2
176
     1
  1
strokes_ogs.tif
176
     1
290
     0
176
     1
 40
1.0
176
     1
 40
1.0
176
     1
  0
VISUALSTYLE
  5
42
102
{ACAD_REACTORS
330
2A
102
}
330
2A
100
AcDbVisualStyle
  2
Shaded
 70
    27
177
     3
291
     0
 70
    58
 90
        2
176
     1
 90
        2
176
     1
 90
        1
176
     1
 90
        2
176
     1
 40
0.6
176
     1
 40
30.0
176
     1
 62
     7
420
 16777215
176
     1
 90
        0
176
     1
 90
        4
176
     1
 62
     7
176
     1
 62
   257
176
     1
 90
        1
176
     1
 90
        1
176
     1
 40
1.0
176
     1
 90
        8
176
     1
 62
   257
176
     1
 40
1.0
176
     1
 90
        1
176
     1
 90
        6
176
     1
 90
        2
176
     1
 62
     8
420
  7895160
176
     1
 90
        3
176
     1
 90
        0
176
     1
 90
        0
176
     1
290
     0
176
     1
 90
        5
176
     1
 40
0.0
176
     1
 90
        0
176
     1
290
     0
176
     1
290
     1
176
     1
290
     1
176
     1
290
     0
176
     1
290
     0
176
     1
290
     0
176
     1
290
     0
176
     1
290
     0
176
     1
290
     0
176
     1
 90
       50
176
     1
 40
0.0
176
     1
 40
1.0
176
     1
 90
        0
176
     1
 62
    18
420
        0
176
     1
 90
       50
176
     1
 90
        3
176
     1
 62
     5
420
      255
176
     1
290
     0
176
     1
 90
       50
176
     1
 90
       50
176
     1
 90
       50
176
     1
290
     0
176
     1
 90
       50
176
     1
 62
   256
176
     0
 40
1.0
176
     0
 90
        2
176
     1
  1
strokes_ogs.tif
176
     1
290
     0
176
     1
 40
1.0
176
     1
 40
1.0
176
     1
  0
VISUALSTYLE
  5
41
102
{ACAD_REACTORS
330
2A
102
}
330
2A
100
AcDbVisualStyle
  2
Shaded with edges
 70
    26
177
     3
291
     0
 70
    58
 90
        2
176
     1
 90
        2
176
     1
 90
        1
176
     1
 90
        2
176
     1
 40
0.6
176
     1
 40
30.0
176
     1
 62
     7
420
 16777215
176
     1
 90
        1
176
     1
 90
       10
176
     1
 62
     7
176
     1
 62
   257
176
     1
 90
        2
176
     1
 90
        1
176
     1
 40
1.0
176
     1
 90
        8
176
     1
 62
   257
176
     1
 40
1.0
176
     1
 90
        1
176
     1
 90
        6
176
     1
 90
        2
176
     1
 62
     7
176
     1
 90
        3
176
     1
 90
        0
176
     1
 90
        0
176
     1
290
     0
176
     1
 90
        5
176
     1
 40
0.0
176
     1
 90
        0
176
     1
290
     0
176
     1
290
     1
176
     1
290
     1
176
     1
290
     0
176
     1
290
     0
176
     1
290
     0
176
     1
290
     0
176
     1
290
     0
176
     1
290
     0
176
     1
 90
       50
176
     1
 40
0.0
176
     1
 40
1.0
176
     1
 90
        0
176
     1
 62
    18
420
        0
176
     1
 90
       50
176
     1
 90
        3
176
     1
 62
     5
420
      255
176
     1
290
     0
176
     1
 90
       50
176
     1
 90
       50
176
     1
 90
       50
176
     1
290
     0
176
     1
 90
       50
176
     1
 62
   256
176
     0
 40
1.0
176
     0
 90
        2
176
     1
  1
strokes_ogs.tif
176
     1
290
     0
176
     1
 40
1.0
176
     1
 40
1.0
176
     1
  0
VISUALSTYLE
  5
3E
102
{ACAD_REACTORS
330
2A
102
}
330
2A
100
AcDbVisualStyle
  2
Shades of Gray
 70
    23
177
     3
291
     0
 70
    58
 90
        2
176
     1
 90
        2
176
     1
 90
        3
176
     1
 90
        0
176
     1
 40
0.6
176
     1
 40
30.0
176
     1
 62
     7
420
 16777215
176
     1
 90
        2
176
     1
 90
        2
176
     1
 62
     7
176
     1
 62
     7
176
     1
 90
        1
176
     1
 90
        1
176
     1
 40
40.0
176
     1
 90
        8
176
     1
 62
     7
176
     1
 40
1.0
176
     1
 90
        1
176
     1
 90
        6
176
     1
 90
        2
176
     1
 62
     7
176
     1
 90
        3
176
     1
 90
        0
176
     1
 90
        0
176
     1
290
     0
176
     1
 90
        1
176
     1
 40
0.0
176
     1
 90
        0
176
     1
290
     0
176
     1
290
     1
176
     1
290
     1
176
     1
290
     0
176
     1
290
     0
176
     1
290
     0
176
     1
290
     0
176
     1
290
     0
176
     1
290
     0
176
     1
 90
       50
176
     1
 40
0.0
176
     1
 40
1.0
176
     1
 90
        0
176
     1
 62
    18
420
        0
176
     1
 90
       50
176
     1
 90
        3
176
     1
 62
     5
420
      255
176
     1
290
     0
176
     1
 90
       50
176
     1
 90
       50
176
     1
 90
       50
176
     1
290
     0
176
     1
 90
       50
176
     1
 62
   256
176
     0
 40
1.0
176
     0
 90
        2
176
     1
  1
strokes_ogs.tif
176
     1
290
     0
176
     1
 40
1.0
176
     1
 40
1.0
176
     1
  0
VISUALSTYLE
  5
3F
102
{ACAD_REACTORS
330
2A
102
}
330
2A
100
AcDbVisualStyle
  2
Sketchy
 70
    24
177
     3
291
     0
 70
    58
 90
        1
176
     1
 90
        2
176
     1
 90
        2
176
     1
 90
        0
176
     1
 40
0.6
176
     1
 40
30.0
176
     1
 62
     7
420
 16777215
176
     1
 90
        2
176
     1
 90
        2
176
     1
 62
     7
176
     1
 62
     7
176
     1
 90
        1
176
     1
 90
        1
176
     1
 40
40.0
176
     1
 90
       11
176
     1
 62
     7
176
     1
 40
1.0
176
     1
 90
        1
176
     1
 90
        6
176
     1
 90
        2
176
     1
 62
     7
176
     1
 90
        6
176
     1
 90
        0
176
     1
 90
        0
176
     1
290
     0
176
     1
 90
        1
176
     1
 40
0.0
176
     1
 90
        0
176
     1
290
     0
176
     1
290
     1
176
     1
290
     1
176
     1
290
     0
176
     1
290
     0
176
     1
290
     0
176
     1
290
     0
176
     1
290
     0
176
     1
290
     0
176
     1
 90
       50
176
     1
 40
0.0
176
     1
 40
1.0
176
     1
 90
        0
176
     1
 62
    18
420
        0
176
     1
 90
       50
176
     1
 90
        3
176
     1
 62
     5
420
      255
176
     1
290
     0
176
     1
 90
       50
176
     1
 90
       50
176
     1
 90
       50
176
     1
290
     0
176
     1
 90
       50
176
     1
 62
   256
176
     0
 40
1.0
176
     0
 90
        2
176
     1
  1
strokes_ogs.tif
176
     1
290
     0
176
     1
 40
1.0
176
     1
 40
1.0
176
     1
  0
VISUALSTYLE
  5
37
102
{ACAD_REACTORS
330
2A
102
}
330
2A
100
AcDbVisualStyle
  2
Thicken
 70
    13
177
     3
291
     1
 70
    58
 90
        2
176
     1
 90
        2
176
     1
 90
        0
176
     1
 90
        0
176
     1
 40
0.6
176
     1
 40
30.0
176
     1
 62
     7
420
 16777215
176
     1
 90
        1
176
     1
 90
        4
176
     1
 62
     7
176
     1
 62
   257
176
     1
 90
        1
176
     1
 90
        1
176
     1
 40
1.0
176
     1
 90
       12
176
     1
 62
     7
176
     1
 40
1.0
176
     1
 90
        1
176
     1
 90
        6
176
     1
 90
        2
176
     1
 62
     7
176
     1
 90
        5
176
     1
 90
        0
176
     1
 90
        0
176
     1
290
     0
176
     1
 90
        1
176
     1
 40
0.0
176
     1
 90
        0
176
     1
290
     0
176
     1
290
     1
176
     1
290
     1
176
     1
290
     0
176
     1
290
     0
176
     1
290
     0
176
     1
290
     0
176
     1
290
     0
176
     1
290
     0
176
     1
 90
       50
176
     1
 40
0.0
176
     1
 40
1.0
176
     1
 90
        0
176
     1
 62
    18
420
        0
176
     1
 90
       50
176
     1
 90
        3
176
     1
 62
     5
420
      255
176
     1
290
     0
176
     1
 90
       50
176
     1
 90
       50
176
     1
 90
       50
176
     1
290
     0
176
     1
 90
       50
176
     1
 62
   256
176
     0
 40
1.0
176
     0
 90
        2
176
     1
  1
strokes_ogs.tif
176
     1
290
     0
176
     1
 40
1.0
176
     1
 40
1.0
176
     1
  0
VISUALSTYLE
  5
30
102
{ACAD_REACTORS
330
2A
102
}
330
2A
100
AcDbVisualStyle
  2
Wireframe
 70
     5
177
     3
291
     0
 70
    58
 90
        0
176
     1
 90
        2
176
     1
 90
        0
176
     1
 90
        0
176
     1
 40
0.6
176
     1
 40
30.0
176
     1
 62
     7
420
 16777215
176
     1
 90
        1
176
     1
 90
        4
176
     1
 62
     7
176
     1
 62
   257
176
     1
 90
        1
176
     1
 90
        1
176
     1
 40
1.0
176
     1
 90
        0
176
     1
 62
   257
176
     1
 40
1.0
176
     1
 90
        1
176
     1
 90
        6
176
     1
 90
        2
176
     1
 62
     7
176
     1
 90
        3
176
     1
 90
        0
176
     1
 90
        0
176
     1
290
     0
176
     1
 90
        1
176
     1
 40
0.0
176
     1
 90
        0
176
     1
290
     0
176
     1
290
     1
176
     1
290
     1
176
     1
290
     0
176
     1
290
     0
176
     1
290
     0
176
     1
290
     0
176
     1
290
     0
176
     1
290
     0
176
     1
 90
       50
176
     1
 40
0.0
176
     1
 40
1.0
176
     1
 90
        0
176
     1
 62
    18
420
        0
176
     1
 90
       50
176
     1
 90
        3
176
     1
 62
     5
420
      255
176
     1
290
     0
176
     1
 90
       50
176
     1
 90
       50
176
     1
 90
       50
176
     1
290
     0
176
     1
 90
       50
176
     1
 62
   256
176
     0
 40
1.0
176
     0
 90
        2
176
     1
  1
strokes_ogs.tif
176
     1
290
     0
176
     1
 40
1.0
176
     1
 40
1.0
176
     1
  0
VISUALSTYLE
  5
40
102
{ACAD_REACTORS
330
2A
102
}
330
2A
100
AcDbVisualStyle
  2
X-Ray
 70
    25
177
     3
291
     0
 70
    58
 90
        2
176
     1
 90
        2
176
     1
 90
        1
176
     1
 90
        1
176
     1
 40
0.5
176
     1
 40
30.0
176
     1
 62
     7
420
 16777215
176
     1
 90
        1
176
     1
 90
        0
176
     1
 62
     7
176
     1
 62
   257
176
     1
 90
        1
176
     1
 90
        1
176
     1
 40
1.0
176
     1
 90
        8
176
     1
 62
     7
176
     1
 40
1.0
176
     1
 90
        1
176
     1
 90
        6
176
     1
 90
        2
176
     1
 62
     7
176
     1
 90
        3
176
     1
 90
        0
176
     1
 90
        0
176
     1
290
     0
176
     1
 90
       13
176
     1
 40
0.0
176
     1
 90
        0
176
     1
290
     0
176
     1
290
     1
176
     1
290
     1
176
     1
290
     0
176
     1
290
     0
176
     1
290
     0
176
     1
290
     0
176
     1
290
     0
176
     1
290
     0
176
     1
 90
       50
176
     1
 40
0.0
176
     1
 40
1.0
176
     1
 90
        0
176
     1
 62
    18
420
        0
176
     1
 90
       50
176
     1
 90
        3
176
     1
 62
     5
420
      255
176
     1
290
     0
176
     1
 90
       50
176
     1
 90
       50
176
     1
 90
       50
176
     1
290
     0
176
     1
 90
       50
176
     1
 62
   256
176
     0
 40
1.0
176
     0
 90
        2
176
     1
  1
strokes_ogs.tif
176
     1
290
     0
176
     1
 40
1.0
176
     1
 40
1.0
176
     1
  0
DICTIONARYVAR
  5
32B
102
{ACAD_REACTORS
330
32A
102
}
330
32A
100
DictionaryVariables
280
     0
  1
1:1
  0
DICTIONARYVAR
  5
330
102
{ACAD_REACTORS
330
32A
102
}
330
32A
100
DictionaryVariables
280
     0
  1
Standard
  0
DICTIONARYVAR
  5
32F
102
{ACAD_REACTORS
330
32A
102
}
330
32A
100
DictionaryVariables
280
     0
  1
Standard
  0
DICTIONARY
  5
32C
330
6A
100
AcDbDictionary
280
     1
281
     1
  3
ACAD_ROUNDTRIP_2008_TABLESTYLE_CELLSTYLEMAP
360
32D
  0
CELLSTYLEMAP
  5
32D
102
{ACAD_REACTORS
330
32C
102
}
330
32C
100
AcDbCellStyleMap
 90
        3
300
CELLSTYLE
  1
TABLEFORMAT_BEGIN
 90
        5
170
     1
 91
        0
 92
    32768
 62
   257
 93
        1
300
CONTENTFORMAT
  1
CONTENTFORMAT_BEGIN
 90
        0
 91
        0
 92
        4
 93
        0
300

 40
0.0
140
1.0
 94
        5
 62
     0
340
11
144
0.25
309
CONTENTFORMAT_END
171
     1
301
MARGIN
  1
CELLMARGIN_BEGIN
 40
0.06
 40
0.06
 40
0.06
 40
0.06
 40
0.06
 40
0.06
309
CELLMARGIN_END
 94
        6
 95
        1
302
GRIDFORMAT
  1
GRIDFORMAT_BEGIN
 90
        0
 91
        1
 62
     0
 92
       -2
340
14
 93
        0
 40
0.045
309
GRIDFORMAT_END
 95
        2
302
GRIDFORMAT
  1
GRIDFORMAT_BEGIN
 90
        0
 91
        1
 62
     0
 92
       -2
340
14
 93
        0
 40
0.045
309
GRIDFORMAT_END
 95
        4
302
GRIDFORMAT
  1
GRIDFORMAT_BEGIN
 90
        0
 91
        1
 62
     0
 92
       -2
340
14
 93
        0
 40
0.045
309
GRIDFORMAT_END
 95
        8
302
GRIDFORMAT
  1
GRIDFORMAT_BEGIN
 90
        0
 91
        1
 62
     0
 92
       -2
340
14
 93
        0
 40
0.045
309
GRIDFORMAT_END
 95
       16
302
GRIDFORMAT
  1
GRIDFORMAT_BEGIN
 90
        0
 91
        1
 62
     0
 92
       -2
340
14
 93
        0
 40
0.045
309
GRIDFORMAT_END
 95
       32
302
GRIDFORMAT
  1
GRIDFORMAT_BEGIN
 90
        0
 91
        1
 62
     0
 92
       -2
340
14
 93
        0
 40
0.045
309
GRIDFORMAT_END
309
TABLEFORMAT_END
  1
CELLSTYLE_BEGIN
 90
        1
 91
        1
300
_TITLE
309
CELLSTYLE_END
300
CELLSTYLE
  1
TABLEFORMAT_BEGIN
 90
        5
170
     1
 91
        0
 92
        0
 62
   257
 93
        1
300
CONTENTFORMAT
  1
CONTENTFORMAT_BEGIN
 90
        0
 91
        0
 92
        4
 93
        0
300

 40
0.0
140
1.0
 94
        5
 62
     0
340
11
144
0.18
309
CONTENTFORMAT_END
171
     1
301
MARGIN
  1
CELLMARGIN_BEGIN
 40
0.06
 40
0.06
 40
0.06
 40
0.06
 40
0.06
 40
0.06
309
CELLMARGIN_END
 94
        6
 95
        1
302
GRIDFORMAT
  1
GRIDFORMAT_BEGIN
 90
        0
 91
        1
 62
     0
 92
       -2
340
14
 93
        0
 40
0.045
309
GRIDFORMAT_END
 95
        2
302
GRIDFORMAT
  1
GRIDFORMAT_BEGIN
 90
        0
 91
        1
 62
     0
 92
       -2
340
14
 93
        0
 40
0.045
309
GRIDFORMAT_END
 95
        4
302
GRIDFORMAT
  1
GRIDFORMAT_BEGIN
 90
        0
 91
        1
 62
     0
 92
       -2
340
14
 93
        0
 40
0.045
309
GRIDFORMAT_END
 95
        8
302
GRIDFORMAT
  1
GRIDFORMAT_BEGIN
 90
        0
 91
        1
 62
     0
 92
       -2
340
14
 93
        0
 40
0.045
309
GRIDFORMAT_END
 95
       16
302
GRIDFORMAT
  1
GRIDFORMAT_BEGIN
 90
        0
 91
        1
 62
     0
 92
       -2
340
14
 93
        0
 40
0.045
309
GRIDFORMAT_END
 95
       32
302
GRIDFORMAT
  1
GRIDFORMAT_BEGIN
 90
        0
 91
        1
 62
     0
 92
       -2
340
14
 93
        0
 40
0.045
309
GRIDFORMAT_END
309
TABLEFORMAT_END
  1
CELLSTYLE_BEGIN
 90
        2
 91
        1
300
_HEADER
309
CELLSTYLE_END
300
CELLSTYLE
  1
TABLEFORMAT_BEGIN
 90
        5
170
     1
 91
        0
 92
        0
 62
   257
 93
        1
300
CONTENTFORMAT
  1
CONTENTFORMAT_BEGIN
 90
        0
 91
        0
 92
        4
 93
        0
300

 40
0.0
140
1.0
 94
        2
 62
     0
340
11
144
0.18
309
CONTENTFORMAT_END
171
     1
301
MARGIN
  1
CELLMARGIN_BEGIN
 40
0.06
 40
0.06
 40
0.06
 40
0.06
 40
0.06
 40
0.06
309
CELLMARGIN_END
 94
        6
 95
        1
302
GRIDFORMAT
  1
GRIDFORMAT_BEGIN
 90
        0
 91
        1
 62
     0
 92
       -2
340
14
 93
        0
 40
0.045
309
GRIDFORMAT_END
 95
        2
302
GRIDFORMAT
  1
GRIDFORMAT_BEGIN
 90
        0
 91
        1
 62
     0
 92
       -2
340
14
 93
        0
 40
0.045
309
GRIDFORMAT_END
 95
        4
302
GRIDFORMAT
  1
GRIDFORMAT_BEGIN
 90
        0
 91
        1
 62
     0
 92
       -2
340
14
 93
        0
 40
0.045
309
GRIDFORMAT_END
 95
        8
302
GRIDFORMAT
  1
GRIDFORMAT_BEGIN
 90
        0
 91
        1
 62
     0
 92
       -2
340
14
 93
        0
 40
0.045
309
GRIDFORMAT_END
 95
       16
302
GRIDFORMAT
  1
GRIDFORMAT_BEGIN
 90
        0
 91
        1
 62
     0
 92
       -2
340
14
 93
        0
 40
0.045
309
GRIDFORMAT_END
 95
       32
302
GRIDFORMAT
  1
GRIDFORMAT_BEGIN
 90
        0
 91
        1
 62
     0
 92
       -2
340
14
 93
        0
 40
0.045
309
GRIDFORMAT_END
309
TABLEFORMAT_END
  1
CELLSTYLE_BEGIN
 90
        3
 91
        2
300
_DATA
309
CELLSTYLE_END
  0
ENDSEC
  0
EOF
